Скачать через торрент Евангелион 3.33: Ты бесплатно Аниме Все серии на русском torrent

Статистика раздачи
Размер:  4.4 GB   |    Зарегистрирован:  2 месяца 27 дней   |    .torrent скачан:  39 раз   |   
Раздают:  1  
   
загрузка...
 
Автор Сообщение

Galfimbul

avatar Galfimbul


Евангелион 3.33: Ты (не) исправишь / Evangelion Shin Gekijouban: Q / Evangelion: 3.33 You Can [Not] Redo

Страна: Япония
Год выпуска: 2012
Жанр: драма, фантастика, меха
Тип: Movie
Продолжительность: 95 мин.
Режиссер: Анно Хидэаки
Студия: Studio Khara

Описание: Мир изменился... Для Синдзи знакомство с ним после пробуждения оказывается оглушающе болезненным. Герою предстоит увидеть, куда ведут благие намерения вчерашних союзников и слепая решимость бывших близких друзей. Но когда рядом сверкнет надежда, у него все-таки найдутся силы что-то изменить - и это может оказаться важнее всего остального.

Третий фильм, штормом захвативший киноэкраны Японии, стал самой «кассовой» частью цикла, и без того не страдавшего от нехватки зрительского внимания. Однако реакция на него была неоднозначной: еще никогда с того времени, как увидели свет финальные серии сериала-первоисточника, Евангелион не вызывал столько споров, не возбуждал столько полярных мнений. Калейдоскоп голосов приводит к единственному возможному выводу: этот фильм - из тех, которые нужно увидеть своими глазами (и, скорее всего, не один раз).
© Reanimedia

Качество: BDRip
Тип релиза: Без хардсаба
Формат видео: MKV
Совместимость с бытовыми плеерами: Да
Релиз/Автор рипа: Predator
Видео: h264, 5000 kbps, 24 fps
Аудио: ac3, 448 kbps, 48 KHz, 6 ch Язык Русский (в составе контейнера) ; Озвучка: Reanimedia Язык Японский
ОбщееУникальный идентификатор : 164166133301927735732377441924201016519 (0x7B813F485EFE94890062A7C0FDA76CC7)Полное имя : D:\Аниме\Evangelion\Evangelion 3.33 You Can (Not) Redo.mkvФормат : MatroskaВерсия формата : Version 4 / Version 2Размер файла : 4,40 ГбайтПродолжительность : 1 ч. 35 м.Общий поток : 6581 Кбит/секНазвание фильма : Evangelion 3.33 You Can (Not) RedoДата кодирования : UTC 2018-07-20 19:35:13Программа кодирования : mkvmerge v25.0.0 ('Prog Noir') 64-bitБиблиотека кодирования : libebml v1.3.6 + libmatroska v1.4.9

ВидеоИдентификатор : 1Формат : AVCФормат/Информация : Advanced Video CodecПрофиль формата : High@L4.1Настройки формата : CABAC / 10 Ref FramesПараметр CABAC формата : ДаПараметр RefFrames формата : 10 кадровИдентификатор кодека : V_MPEG4/ISO/AVCПродолжительность : 1 ч. 35 м.Битрейт : 5500 Кбит/секШирина : 1280 пикселейВысота : 544 пикселяСоотношение сторон : 2,35:1Режим частоты кадров : ПостоянныйЧастота кадров : 24,000 кадра/секЦветовое пространство : YUVСубдискретизация насыщенности : 4:2:0Битовая глубина : 8 битТип развёртки : ПрогрессивнаяБит/(Пиксели*Кадры) : 0.329Размер потока : 3,67 Гбайт (83%)Заголовок : WorkuzБиблиотека кодирования : x264 core 148 r2744 b97ae06Настройки программы : cabac=1 / ref=10 / deblock=1:1:1 / analyse=0x3:0x113 / me=hex / subme=8 / psy=1 / psy_rd=0.40:0.00 / mixed_ref=1 / me_range=16 / chroma_me=1 / trellis=2 / 8x8dct=1 / cqm=0 / deadzone=21,11 / fast_pskip=1 / chroma_qp_offset=-2 / threads=6 / lookahead_threads=1 / sliced_threads=0 / nr=0 / decimate=1 / interlaced=0 / bluray_compat=0 / constrained_intra=0 / bframes=5 / b_pyramid=2 / b_adapt=1 / b_bias=0 / direct=3 / weightb=1 / open_gop=0 / weightp=2 / keyint=240 / keyint_min=24 / scenecut=40 / intra_refresh=0 / rc_lookahead=50 / rc=2pass / mbtree=1 / bitrate=5500 / ratetol=1.0 / qcomp=0.60 / qpmin=0 / qpmax=69 / qpstep=4 / cplxblur=20.0 / qblur=0.5 / vbv_maxrate=62500 / vbv_bufsize=78125 / nal_hrd=none / filler=0 / ip_ratio=1.40 / aq=1:0.60Default : ДаForced : Нет

Аудио #1Идентификатор : 2Формат : AC-3Формат/Информация : Audio Coding 3Коммерческое название : Dolby DigitalИдентификатор кодека : A_AC3Продолжительность : 1 ч. 35 м.Вид битрейта : ПостоянныйБитрейт : 448 Кбит/секКаналы : 6 каналовРасположение каналов : Front: L C R, Side: L R, LFEЧастота : 48,0 КГцЧастота кадров : 31,250 кадров/сек (1536 SPF)Битовая глубина : 16 битМетод сжатия : С потерямиЗадержка видео : 1 с. 850 мс.Размер потока : 306 Мбайт (7%)Заголовок : ReanimediaЯзык : RussianServiceKind/String : Complete MainDefault : НетForced : Нет

Аудио #2Идентификатор : 3Формат : AC-3Формат/Информация : Audio Coding 3Коммерческое название : Dolby DigitalИдентификатор кодека : A_AC3Продолжительность : 1 ч. 35 м.Вид битрейта : ПостоянныйБитрейт : 640 Кбит/секКаналы : 6 каналовРасположение каналов : Front: L C R, Side: L R, LFEЧастота : 48,0 КГцЧастота кадров : 31,250 кадров/сек (1536 SPF)Битовая глубина : 16 битМетод сжатия : С потерямиРазмер потока : 437 Мбайт (10%)Заголовок : [Original]Язык : JapaneseServiceKind/String : Complete MainDefault : НетForced : Нет


Трекер:  [ 20-Июл-2018 23:01 ]

  

Скачать .torrent

Размер .torrent файла 11 KB


Размер: 4.4 GB
Хэш (hash) релиза: 5aa09511a72ced599f97c908261fc7297497a7b0
Подписка на обновления:

Торренты, похожие на Евангелион 3.33: Ты скачать торрент

Форум Название Автор Размер S L Добавлен
Аниме | HD Rips ·· Евангелион 3.33: Ты (не) Исправишь / Евангелион по-новому (фильм третий) / Evangelion: 3.0 You Can (Not) Redo / Evangelion Shin Gekijouban: Q [Movie] [Без хардсаба] [JAP+SUB] [2012 г., фантастика, меха, драма, BDRip] [720p] L 23291084072.17 GB 0 0 1368219357

23:55

10-Май-13

Аниме | HD Rips ·%· Евангелион 3.33: Ты (не) исправишь / Evangelion Shin Gekijouban: Q / Evangelion: 3.33 You Can [Not] Redo [Movie] [Без хардсаба] [RUS(int), JAP, SUB] [2012, драма, фантастика, меха, BDRip] [1080p] Galfimbul 82797972567.71 GB 0 0 1531081816

23:30

8-Июл-18

Аниме | DVD ·%· Евангелион 3.33: Ты (не) исправишь / Evangelion Shin Gekijouban: Q / Evangelion: 3.0 You Can (Not) Redo [Movie] [RUS, JAP+SUB] [2012, фантастика, меха, драма] [DVD9] Galfimbul 67038506876.24 GB 0 0 1529893809

05:30

25-Июн-18

Аниме | HD Rips ·%· Евангелион 3.33: Ты (не) исправишь / Evangelion Shin Gekijouban: Q / Evangelion: 3.0 You Can (Not) Redo [Movie] [Без хардсаба] [RUS(int), JAP+SUB] [2012, фантастика, меха, драма, Blu-ray] [1080p] Galfimbul 3882829870336.16 GB 0 0 1529861425

20:30

24-Июн-18

Еще никто не оставлял запись к записи скачать торрент Евангелион 3.33: Ты . Будь первым!

!Обратная связь