, ! torrent

6.25 GB   |    :  2 27    |    .torrent :  51    |   
1  
   
...
 

Galfimbul

avatar Galfimbul



:
: 2018
: ,
: TV
: 24 . 24 .
:
:

:
. . . . , - , . , .
. : AniDB || World Art || MAL
: WEBRip
:
: MKV
:
/ : [Davinci]
: AVC, 1280x720, 1 152 kbps, 23.976 FPS, 10 bits
: E-AC-3, 128 kbps, 48.0 kHz, 2 channels
: ASS,
:
: ASS,
: [Davinci]
General
Unique ID : 42104223292622428527707277393599712584 (0x1FACFA7B3434E0503BAFE6442388CD48)
Complete name : G:\L\[Davinci] Saiki Kusuo no Psi-nan 2 [720p]\[Davinci] Saiki Kusuo no Psi-nan 2 - 01 [720p][C53F5DBC].mkv
Format : Matroska
Format version : Version 4 / Version 2
File size : 220 MiB
Duration : 23 min 41 s
Overall bit rate : 1 296 kb/s
Encoded date : UTC 2018-01-28 00:12:18
Writing application : mkvmerge v19.0.0 ('Brave Captain') 64-bit
Writing library : libebml v1.3.5 + libmatroska v1.4.8
Attachments : Dimbo Regular.ttf / Drawing with markers.ttf / Erase Old Year.ttf / Fontin_Sans_0.otf / Fontin_Sans_BI.ttf / FRABK.TTF / framd.ttf / framdit.ttf / FromWhereYouAre.ttf / HappyNewYear2016.ttf / KLEPTO_.TTF / LeviReBrushed.ttf / ObelixPro-cyr.ttf / Odin Rounded - Bold.otf / OldSansBlack.ttf / olivier_demo.ttf / Outrun future Bold.otf / Outrun future.otf / palab.ttf / PWChalk.ttf / Sassy Molassy.ttf / AldotheApache.ttf / ARLRDBD.TTF / Aroha.otf / augie.ttf / CHERI__.TTF / CREABBB.TTF / CREABBRG.TTF

Video
ID : 1
Format : AVC
Format/Info : Advanced Video Codec
Format profile : High 4:4:4 Predictive@L5
Format settings : CABAC / 16 Ref Frames
Format settings, CABAC : Yes
Format settings, ReFrames : 16 frames
Codec ID : V_MPEG4/ISO/AVC
Duration : 23 min 39 s
Bit rate : 1 152 kb/s
Width : 1 280 pixels
Height : 720 pixels
Display aspect ratio : 16:9
Frame rate mode : Constant
Frame rate : 23.976 (24000/1001) FPS
Color space : YUV
Chroma subsampling : 4:4:4
Bit depth : 10 bits
Scan type : Progressive
Bits/(Pixel*Frame) : 0.052
Stream size : 195 MiB (89%)
Writing library : x264 core 152 r2851kMod ba24899
Encoding settings : cabac=1 / ref=16 / deblock=1:-1:-1 / analyse=0x1:0x111 / me=umh / subme=10 / psy=1 / fade_compensate=0.00 / psy_rd=0.70:0.10 / mixed_ref=1 / me_range=32 / chroma_me=1 / trellis=2 / 8x8dct=0 / cqm=0 / deadzone=21,11 / fast_pskip=0 / chroma_qp_offset=0 / threads=12 / lookahead_threads=3 / sliced_threads=0 / nr=0 / decimate=0 / interlaced=0 / bluray_compat=0 / constrained_intra=0 / bframes=16 / b_pyramid=2 / b_adapt=2 / b_bias=0 / direct=3 / weightb=1 / open_gop=0 / weightp=2 / keyint=240 / keyint_min=24 / scenecut=40 / intra_refresh=0 / rc_lookahead=48 / rc=crf / mbtree=1 / crf=17.0000 / qcomp=0.70 / qpmin=0 / qpmax=81 / qpstep=4 / ip_ratio=1.40 / aq=3:0.80
Language : English
Default : Yes
Forced : No
Color range : Limited
Matrix coefficients : BT.709

Audio
ID : 3
Format : E-AC-3
Format/Info : Enhanced Audio Coding 3
Codec ID : A_EAC3
Duration : 23 min 41 s
Bit rate mode : Constant
Bit rate : 128 kb/s
Channel(s) : 2 channels
Channel positions : Front: L R
Sampling rate : 48.0 kHz
Frame rate : 187.500 FPS (256 SPF)
Compression mode : Lossy
Delay relative to video : 23 ms
Stream size : 21.7 MiB (10%)
Service kind : Complete Main
Default : Yes
Forced : No

Text
ID : 2
Format : ASS
Codec ID : S_TEXT/ASS
Codec ID/Info : Advanced Sub Station Alpha
Duration : 23 min 31 s
Bit rate : 820 b/s
Count of elements : 1621
Compression mode : Lossless
Stream size : 141 KiB (0%)
Language : English
Default : Yes
Forced : No
1 Episode 1
2 Episode 2
3 Episode 3
4 Episode 4
5 Episode 5
6 Episode 6
7 Episode 7
8 Episode 8
9 Episode 9
10 Episode 10
11 Episode 11
12 Episode 12
13 Episode 13
14 Episode 14
15 Episode 15
16 Episode 16
17 Episode 17
18 Episode 18
19 Episode 19
20 Episode 20
21 Episode 21
22 Episode 22
23 Episode 23
24 Episode 24


 ·  , , FAQ-
:  [ 21--2018 07:30 ]

  

.torrent

.torrent 20 KB


: 6.25 GB
(hash) : f6a556d9b3264370b7a33506a5cda6f39dc00974
:
··
...

, ! . !

!