Скачать через торрент Вайолет Эвергарден Violet Evergarden бесплатно Аниме Все серии на русском torrent

Статистика раздачи
Размер:  8.07 GB   |    Зарегистрирован:  4 месяца 21 день   |    .torrent скачан:  44 раза   |   
Раздают:  1  
   
загрузка...
 
Автор Сообщение

Galfimbul

avatar Galfimbul



Вайолет Эвергарден / Violet Evergarden
Страна: Япония
Год выпуска: 2018
Жанр: повседневность, драма
Тип: TV
Продолжительность: 13 эп. по 24 мин.
Режиссер: Исидатэ Тайти
Студия: Kyoto Animation, Animation Do
Описание:Вайолет Эвергарден, молодая девушка, чья жизнь — не что иное, как война, послушно служит под командованием майора Гилберта Бугенвиллеи из армии Ляйденшафтлиха.
После серьёзных увечий, оставивших её без рук и разделивших с Гилбертом, она покинула поле боя и была взята под опеку бывшим командующим армии Клаудией Ходжинсом, который после окончания войны основал почтовую службу «C-H» в крупном портовом городе Ляйден. Эта компания осуществляет регулярные почтовые пересылки и предоставляет услуги «автозапоминающих кукол» — талантливых девушек, в чьи обязанности входит написание писем и корректировка текста для большей части неграмотного населения города.
В конечном итоге, тронутая работой автозапоминающих кукол, Вайолет решает присоединиться к команде, чтобы узнать судьбу майора Гилберта и смысл последних слов, сказанных им: «Я люблю тебя».
© Lucciᅠ
Качество: WEBRip
Тип релиза: Без хардсаба
Наличие линковки: нет
Формат видео: MKV
Автор рипа: [Vivid-Asenshi]

Видео: x264 (10 bit), 1920x1080, ~3372 kbps, 23.976 fps
Аудио:
1) AAC, 184 kbps, 48.0 KHz, 2 ch, русский (внешним файлом) - [AniFilm]
2) AAC, 127 kbps, 48.0 KHz, 2 ch, русский (внешним файлом) - [FireDub]
3) AAC, 192 kbps, 48.0 KHz, 2 ch (1-9) / AC3, 192 kbps, 48.0 KHz, 2 ch (10-13), русский (внешним файлом) - [KANSAI]
4) AAC, 198 kbps, 48.0 KHz, 2 ch, русский (внешним файлом) - [SHIZA]
5) AAC, 252 kbps, 48.0 KHz, 2 ch, японский (в составе контейнера)

Субтитры:
1) ASS, внешние, русский; перевод: [2nd Division] - Atakaze, DanielB, Tanegashi
2) ASS, внешние, русский; перевод: [nnm-club] - ElSwanko, kvaking
3) ASS, внешние, русский; перевод: [Sa4ko aka Kiyoso] - Sa4ko aka Kiyoso, kuro
4) ASS, внешние, русский; перевод: [А2react] - Андрей Зайцев, Алиса Трушина
5) ASS, в составе контейнера, английский; перевод: Vivid Asenshi
6) ASS, внешние, русский; Надписи - (1-5 [А2react]; 6-13 [Sa4ko aka Kiyoso])
многоголосая - Rokana, Баяна, Delete, Constantine [AniFilm] - sample

трёхголосая - Gareligos & Fretta & MarieFunker (1) / многоголосая - Gareligos & Fretta & MarieFunker & DexSex (2-13) [FireDub] - sample

многоголосая - [KANSAI] - sample

многоголосая - Dancel, Nate, Pandora, Abe [SHIZA] - sample
ОбщееУникальный идентификатор : 221589724396047989199517066391730961254 (0xA6B4A0E932238E5F8E54F75F6A46BB66)Полное имя : [Vivid-Asenshi]\[Vivid-Asenshi] Violet Evergarden - 01v2 [05E4F451].mkvФормат : MatroskaВерсия формата : Version 4 / Version 2Размер файла : 614 МбайтПродолжительность : 23 м. 39 с.Общий поток : 3630 Кбит/секДата кодирования : UTC 2018-01-11 15:33:57Программа кодирования : mkvmerge v18.0.0 ('Apricity') 64-bitБиблиотека кодирования : libebml v1.3.5 + libmatroska v1.4.8Attachments : FOT-KleePro-DB-Str.otf / IwaMinPro-Md-Kami.ttf / Cabin-Bold.otf / Cabin-BoldItalic.otf

ВидеоИдентификатор : 1Формат : AVCФормат/Информация : Advanced Video CodecПрофиль формата : High 10@L5.1Настройки формата : CABAC / 16 Ref FramesПараметр CABAC формата : ДаПараметр RefFrames формата : 16 кадровИдентификатор кодека : V_MPEG4/ISO/AVCПродолжительность : 23 м. 39 с.Битрейт : 3372 Кбит/секШирина : 1920 пикселейВысота : 1080 пикселейСоотношение сторон : 16:9Режим частоты кадров : ПостоянныйЧастота кадров : 23,976 (24000/1001) кадра/секЦветовое пространство : YUVСубдискретизация насыщенности : 4:2:0Битовая глубина : 10 битТип развёртки : ПрогрессивнаяБит/(Пиксели*Кадры) : 0.068Размер потока : 571 Мбайт (93%)Библиотека кодирования : x264 core 148 r2762+56 7979737 t_mod_Custom [10-bit@all X86_64]Настройки программы : cabac=1 / ref=16 / deblock=1:0:0 / analyse=0x3:0x133 / me=umh / subme=10 / psy=1 / fade_compensate=0.80 / psy_rd=0.85:0.00 / mixed_ref=1 / me_range=24 / chroma_me=1 / trellis=2 / 8x8dct=1 / cqm=0 / deadzone=21,11 / fast_pskip=1 / chroma_qp_offset=-2 / threads=12 / lookahead_threads=3 / sliced_threads=0 / nr=0 / decimate=1 / interlaced=0 / bluray_compat=0 / constrained_intra=0 / fgo=0 / bframes=16 / b_pyramid=2 / b_adapt=2 / b_bias=0 / direct=3 / weightb=1 / open_gop=0 / weightp=2 / keyint=250 / keyint_min=23 / scenecut=40 / intra_refresh=0 / rc_lookahead=60 / rc=crf / mbtree=1 / crf=16.3000 / qcomp=0.65 / qpmin=0:0:0 / qpmax=81:81:81 / qpstep=4 / ip_ratio=1.40 / aq=3:0.80 / aq-sensitivity=10.00 / aq-factor=1.00:1.00:1.00 / aq2=0 / aq3=0Язык : EnglishDefault : ДаForced : НетЦветовой диапазон : LimitedКоэффициенты матрицы : BT.709

АудиоИдентификатор : 2Формат : AACФормат/Информация : Advanced Audio CodecПрофиль формата : LCИдентификатор кодека : A_AAC-2Продолжительность : 23 м. 39 с.Битрейт : 252 Кбит/секКаналы : 2 каналаРасположение каналов : Front: L RЧастота : 48,0 КГцЧастота кадров : 46,875 кадров/сек (1024 SPF)Метод сжатия : С потерямиРазмер потока : 42,7 Мбайт (7%)Язык : JapaneseDefault : ДаForced : Нет

ТекстИдентификатор : 3Формат : ASSИдентификатор кодека : S_TEXT/ASSИдентификатор кодека/Информация : Advanced Sub Station AlphaПродолжительность : 23 м. 16 с.Битрейт : 105 бит/секElementCount : 339Метод сжатия : Без потерьРазмер потока : 17,9 Кбайт (0%)Язык : EnglishDefault : ДаForced : Нет

Меню00:00:00.000 : :Intro00:02:34.946 : :Part A00:12:00.929 : :Part B
01. "Я люблю тебя" Самопишущая кукла
02. "Не вернётся"
03. "Я верю, ты станешь образцовой Самопишущей куклой"
04. "Ты не инструмент, а человек, достойный своего имени"
05. "Ты пишешь письма, которые объединяют людей?"
06. "Где-то под звёздным небом"
07. " "
08. "Майор!"
09. "Виолетта Эвергарден"
10. "Любимые всегда будут присматривать за тобой"
11. "Я не хочу, чтобы кто-либо умирал"
12. "И вновь грянет война"
13. Самопишущая Кукла и "Я люблю тебя"
...5505702 (наличие русскоязычной дорожки);
...5543025 (1080p);
...5505551 (1080p, наличие альтернативной русскоязычной дорожки);
...5563104 (1080p, наличие альтернативной русскоязычной дорожки);
...5551401 (наличие русскоязычной дорожки);
...5558495 (наличие русскоязычной дорожки).


Трекер:  [ 21-Июл-2018 13:30 ]

  

Скачать .torrent

Размер .torrent файла 57 KB


Размер: 8.07 GB
Хэш (hash) релиза: 3954fc55d35657e7bdc0e7cf8facebcd8c9ea4fe
Подписка на обновления:

Торренты, похожие на Вайолет Эвергарден Violet Evergarden скачать торрент

Форум Название Автор Размер S L Добавлен
Аниме | HD Rips ·· Вайолет Эвергарден / Violet Evergarden [TV+Special] [13+0 из 13+1] [Без хардсаба] [RUS(int)] [2018, повседневность, драма, HDTVRip] [720p] Galfimbul 40292976523.75 GB 0 0 1526941807

01:30

22-Май-18

Аниме | HD Rips ·· Вайолет Эвергарден / Violet Evergarden [TV+Special] [1-3+0 из 13+1] [без хардсаба] [JAP+SUB] [2018, повседневность, драма, BDRemux] [1080p] Galfimbul 2214309115720.62 GB 0 0 1525687278

13:01

7-Май-18

Аниме | HD Rips ·· Вайолет Эвергарден / Violet Evergarden [TV+Special] [1-3+0] из [13+1] [Без хардсаба] [JAP+SUB] [2018, повседневность, драма, BDRip] [1080p] Galfimbul 58125513015.41 GB 0 0 1524270608

03:30

21-Апр-18

Аниме | Rips ·· Вайолет Эвергарден / Violet Evergarden [TV] [01-09 из 13] [Без хардсаба] [RUS(int), JAP+SUB] [2018, приключения, фэнтези, драма, HDTVRip] [HWP] Galfimbul 21632958732.01 GB 0 0 1522607423

21:30

1-Апр-18

Аниме | HD Rips ·· Вайолет Эвергарден / Violet Evergarden (Исидатэ Тайти) [TV] [01 из 12] [Без хардсаба] [JAP+SUB] [2018, Приключения, WEBRip] [1080p] Galfimbul 643940218614 MB 0 0 1515708103

01:01

12-Янв-18

Еще никто не оставлял запись к записи скачать торрент Вайолет Эвергарден Violet Evergarden . Будь первым!

!Обратная связь