Скачать через торрент музыку Зелли и я Zelly And Me бесплатно без регистрации torrent

Статистика раздачи
Размер:  268 MB   |    Зарегистрирован:  8 месяцев   |    .torrent скачан:  43 раза   |   
Раздают:  1  
   
загрузка...
 
Автор Сообщение

Galfimbul

avatar Galfimbul


Зелли и я |
Zelly And Me
Жанр: Score
Композитор: Pino Donaggio
Год выпуска диска: 2016
Год выпуска фильма: 1988
Страна-производитель диска: USA
Издатель (лейбл): Varese Sarabande (Varese Encore series)
Номер по каталогу: VCL 0516 1171
Аудиокодек: FLAC (*.flac)
Тип рипа: tracks+.cue
Битрейт аудио: lossless
Продолжительность: 00:33:57
Источник: собственный рип
Наличие сканов в содержимом раздачи: да, 600 dpi, jpg
Limited edition of 1000 copies.
[pre
1. Phoebe And St. Joan (02:18)
2. In The Hammock (01:38)
3. Preparing For The Wedding (01:30)
4. Waddles And Queenie (01:09)
5. Why Was Joan Burned? (00:53)
6. Wedding Of Waddles And Queenie (02:34)
7. Zelly And Willie (04:30)
8. Phoebe Comes Home (00:57)
9. Phoebe Feeling Lonely (01:57)
10. Talk To Me (01:18)
11. Eagle House (02:15)
12. Coco (01:00)
13. Zelly (01:02)
14. The Birth Of Socky (01:31)
15. I Want To Be With You (01:15)
16. This Is Who I Am (02:06)
17. The Locked Bedroom (01:31)
18. Zelly And Me (04:33)[/pre]
Exact Audio Copy V1.3 from 2. September 2016

EAC extraction logfile from 19. July 2018, 18:54

Pino Donaggio / Zelly and Me

Used drive : ATAPI iHBS312 2 Adapter: 1 ID: 1

Read mode : SecureUtilize accurate stream : YesDefeat audio cache : YesMake use of C2 pointers : No

Read offset correction : 6Overread into Lead-In and Lead-Out : NoFill up missing offset samples with silence : YesDelete leading and trailing silent blocks : NoNull samples used in CRC calculations : YesUsed interface : Native Win32 interface for Win NT & 2000Gap handling : Appended to previous track

Used output format : User Defined EncoderSelected bitrate : 1024 kBit/sQuality : HighAdd ID3 tag : NoCommand line compressor : C:\Program Files\Exact Audio Copy\Flac\flac.exeAdditional command line options : -V -8 -T "Genre=%genre%" -T "Artist=%artist%" -T "Title=%title%" -T "Album=%albumtitle%" -T "Date=%year%" -T "Tracknumber=%tracknr%" -T "Comment=%comment%" %source%

TOC of the extracted CD

Track | Start | Length | Start sector | End sector --------------------------------------------------------- 1 | 0:00.00 | 2:18.06 | 0 | 10355 2 | 2:18.06 | 1:37.40 | 10356 | 17670 3 | 3:55.46 | 1:30.18 | 17671 | 24438 4 | 5:25.64 | 1:09.07 | 24439 | 29620 5 | 6:34.71 | 0:52.48 | 29621 | 33568 6 | 7:27.44 | 2:34.23 | 33569 | 45141 7 | 10:01.67 | 4:30.02 | 45142 | 65393 8 | 14:31.69 | 0:56.62 | 65394 | 69655 9 | 15:28.56 | 1:56.48 | 69656 | 78403 10 | 17:25.29 | 1:17.68 | 78404 | 84246 11 | 18:43.22 | 2:15.25 | 84247 | 94396 12 | 20:58.47 | 0:59.44 | 94397 | 98865 13 | 21:58.16 | 1:01.54 | 98866 | 103494 14 | 22:59.70 | 1:30.57 | 103495 | 110301 15 | 24:30.52 | 1:14.39 | 110302 | 115890 16 | 25:45.16 | 2:06.27 | 115891 | 125367 17 | 27:51.43 | 1:30.61 | 125368 | 132178 18 | 29:22.29 | 4:33.00 | 132179 | 152653

Track 1

Filename F:\torrent\Zelly and Me_Pino Donaggio\score\01. Pino Donaggio - Phoebe and St. Joan.wav

Pre-gap length 0:00:02.00

Peak level 99.4 % Extraction speed 3.4 X Track quality 99.9 % Test CRC 456F9355 Copy CRC 456F9355 Accurately ripped (confidence 3) [801A9422] (AR v2) Copy OK

Track 2

Filename F:\torrent\Zelly and Me_Pino Donaggio\score\02. Pino Donaggio - In the Hammock.wav

Peak level 99.5 % Extraction speed 4.4 X Track quality 100.0 % Test CRC 64EF17F5 Copy CRC 64EF17F5 Accurately ripped (confidence 3) [4CA450C2] (AR v2) Copy OK

Track 3

Filename F:\torrent\Zelly and Me_Pino Donaggio\score\03. Pino Donaggio - Preparing for the Wedding.wav

Peak level 99.5 % Extraction speed 4.5 X Track quality 100.0 % Test CRC 92662A09 Copy CRC 92662A09 Accurately ripped (confidence 3) [7C04B73E] (AR v2) Copy OK

Track 4

Filename F:\torrent\Zelly and Me_Pino Donaggio\score\04. Pino Donaggio - Waddles and Queenie.wav

Peak level 99.4 % Extraction speed 4.2 X Track quality 100.0 % Test CRC 9A810833 Copy CRC 9A810833 Accurately ripped (confidence 3) [FDED84FF] (AR v2) Copy OK

Track 5

Filename F:\torrent\Zelly and Me_Pino Donaggio\score\05. Pino Donaggio - Why Was Joan Burned.wav

Peak level 51.3 % Extraction speed 3.9 X Track quality 100.0 % Test CRC 3EEC2A37 Copy CRC 3EEC2A37 Accurately ripped (confidence 3) [7935A1E9] (AR v2) Copy OK

Track 6

Filename F:\torrent\Zelly and Me_Pino Donaggio\score\06. Pino Donaggio - Wedding of Waddles and Queenie.wav

Peak level 99.2 % Extraction speed 5.5 X Track quality 100.0 % Test CRC 0BF4BCDA Copy CRC 0BF4BCDA Accurately ripped (confidence 3) [9D168C89] (AR v2) Copy OK

Track 7

Filename F:\torrent\Zelly and Me_Pino Donaggio\score\07. Pino Donaggio - Zelly and Willie.wav

Peak level 99.5 % Extraction speed 6.5 X Track quality 100.0 % Test CRC 7B9CCEC2 Copy CRC 7B9CCEC2 Accurately ripped (confidence 3) [09B92F75] (AR v2) Copy OK

Track 8

Filename F:\torrent\Zelly and Me_Pino Donaggio\score\08. Pino Donaggio - Phoebe Comes Home.wav

Peak level 79.4 % Extraction speed 4.6 X Track quality 100.0 % Test CRC C400E843 Copy CRC C400E843 Accurately ripped (confidence 3) [60EAE61C] (AR v2) Copy OK

Track 9

Filename F:\torrent\Zelly and Me_Pino Donaggio\score\09. Pino Donaggio - Phoebe Feeling Lonely.wav

Peak level 43.0 % Extraction speed 6.0 X Track quality 100.0 % Test CRC C758C927 Copy CRC C758C927 Accurately ripped (confidence 3) [B8199693] (AR v2) Copy OK

Track 10

Filename F:\torrent\Zelly and Me_Pino Donaggio\score\10. Pino Donaggio - Talk to Me.wav

Peak level 94.9 % Extraction speed 5.5 X Track quality 100.0 % Test CRC 7191CCE6 Copy CRC 7191CCE6 Accurately ripped (confidence 3) [597DAE14] (AR v2) Copy OK

Track 11

Filename F:\torrent\Zelly and Me_Pino Donaggio\score\11. Pino Donaggio - Eagle House.wav

Peak level 96.1 % Extraction speed 6.5 X Track quality 100.0 % Test CRC DD70AA15 Copy CRC DD70AA15 Accurately ripped (confidence 3) [BB5B9F70] (AR v2) Copy OK

Track 12

Filename F:\torrent\Zelly and Me_Pino Donaggio\score\12. Pino Donaggio - Coco.wav

Peak level 82.8 % Extraction speed 5.3 X Track quality 100.0 % Test CRC AE535912 Copy CRC AE535912 Accurately ripped (confidence 3) [53A56F66] (AR v2) Copy OK

Track 13

Filename F:\torrent\Zelly and Me_Pino Donaggio\score\13. Pino Donaggio - Zelly.wav

Peak level 47.4 % Extraction speed 3.4 X Track quality 99.8 % Test CRC 34ACED61 Copy CRC 34ACED61 Accurately ripped (confidence 3) [30256D63] (AR v2) Copy OK

Track 14

Filename F:\torrent\Zelly and Me_Pino Donaggio\score\14. Pino Donaggio - The Birth of Socky.wav

Peak level 99.5 % Extraction speed 6.2 X Track quality 100.0 % Test CRC 4F034CDE Copy CRC 4F034CDE Accurately ripped (confidence 3) [15F3AFCB] (AR v2) Copy OK

Track 15

Filename F:\torrent\Zelly and Me_Pino Donaggio\score\15. Pino Donaggio - I Want to Be With You.wav

Peak level 99.5 % Extraction speed 5.9 X Track quality 100.0 % Test CRC 1C51FEE8 Copy CRC 1C51FEE8 Accurately ripped (confidence 3) [F7889ECE] (AR v2) Copy OK

Track 16

Filename F:\torrent\Zelly and Me_Pino Donaggio\score\16. Pino Donaggio - This Is Who I Am.wav

Peak level 99.4 % Extraction speed 7.1 X Track quality 100.0 % Test CRC BB6CD7F7 Copy CRC BB6CD7F7 Accurately ripped (confidence 3) [FD65E72F] (AR v2) Copy OK

Track 17

Filename F:\torrent\Zelly and Me_Pino Donaggio\score\17. Pino Donaggio - The Locked Bedroom.wav

Peak level 99.5 % Extraction speed 6.6 X Track quality 100.0 % Test CRC 331F68B5 Copy CRC 331F68B5 Accurately ripped (confidence 3) [4A91948D] (AR v2) Copy OK

Track 18

Filename F:\torrent\Zelly and Me_Pino Donaggio\score\18. Pino Donaggio - Zelly and Me.wav

Peak level 99.0 % Extraction speed 8.4 X Track quality 100.0 % Test CRC 230E0D95 Copy CRC 230E0D95 Accurately ripped (confidence 3) [E1C1546F] (AR v2) Copy OK

All tracks accurately ripped

No errors occurred

End of status report

---- CUETools DB Plugin V2.1.6

[CTDB TOCID: GsvjqQ4e86i_Dx2obFwIb3vMIEg-] foundSubmit result: GsvjqQ4e86i_Dx2obFwIb3vMIEg- has been confirmedTrack | CTDB Status 1 | (12/12) Accurately ripped 2 | (12/12) Accurately ripped 3 | (12/12) Accurately ripped 4 | (12/12) Accurately ripped 5 | (12/12) Accurately ripped 6 | (12/12) Accurately ripped 7 | (12/12) Accurately ripped 8 | (12/12) Accurately ripped 9 | (12/12) Accurately ripped 10 | (12/12) Accurately ripped 11 | (12/12) Accurately ripped 12 | (12/12) Accurately ripped 13 | (12/12) Accurately ripped 14 | (12/12) Accurately ripped 15 | (12/12) Accurately ripped 16 | (12/12) Accurately ripped 17 | (12/12) Accurately ripped 18 | (12/12) Accurately ripped

==== Log checksum 291F46B17F9FB5CA1F6D737FF989CE8A4A2F56A5049134D4B9913962A6EA130E ====
REM GENRE SoundtrackREM DATE 2016REM DISCID DC07F312REM COMMENT "ExactAudioCopy v1.3"PERFORMER "Pino Donaggio"TITLE "Zelly and Me"REM COMPOSER ""FILE "01. Pino Donaggio - Phoebe and St. Joan.wav" WAVE TRACK 01 AUDIO TITLE "Phoebe and St. Joan" PERFORMER "Pino Donaggio" REM COMPOSER "" ISRC US3M51617101 INDEX 01 00:00:00FILE "02. Pino Donaggio - In the Hammock.wav" WAVE TRACK 02 AUDIO TITLE "In the Hammock" PERFORMER "Pino Donaggio" REM COMPOSER "" ISRC US3M51617102 INDEX 01 00:00:00FILE "03. Pino Donaggio - Preparing for the Wedding.wav" WAVE TRACK 03 AUDIO TITLE "Preparing for the Wedding" PERFORMER "Pino Donaggio" REM COMPOSER "" ISRC US3M51617103 INDEX 01 00:00:00FILE "04. Pino Donaggio - Waddles and Queenie.wav" WAVE TRACK 04 AUDIO TITLE "Waddles and Queenie" PERFORMER "Pino Donaggio" REM COMPOSER "" ISRC US3M51617104 INDEX 01 00:00:00FILE "05. Pino Donaggio - Why Was Joan Burned.wav" WAVE TRACK 05 AUDIO TITLE "Why Was Joan Burned?" PERFORMER "Pino Donaggio" REM COMPOSER "" ISRC US3M51617105 INDEX 01 00:00:00FILE "06. Pino Donaggio - Wedding of Waddles and Queenie.wav" WAVE TRACK 06 AUDIO TITLE "Wedding of Waddles and Queenie" PERFORMER "Pino Donaggio" REM COMPOSER "" ISRC US3M51617106 INDEX 01 00:00:00FILE "07. Pino Donaggio - Zelly and Willie.wav" WAVE TRACK 07 AUDIO TITLE "Zelly and Willie" PERFORMER "Pino Donaggio" REM COMPOSER "" ISRC US3M51617107 INDEX 01 00:00:00FILE "08. Pino Donaggio - Phoebe Comes Home.wav" WAVE TRACK 08 AUDIO TITLE "Phoebe Comes Home" PERFORMER "Pino Donaggio" REM COMPOSER "" ISRC US3M51617108 INDEX 01 00:00:00FILE "09. Pino Donaggio - Phoebe Feeling Lonely.wav" WAVE TRACK 09 AUDIO TITLE "Phoebe Feeling Lonely" PERFORMER "Pino Donaggio" REM COMPOSER "" ISRC US3M51617109 INDEX 01 00:00:00FILE "10. Pino Donaggio - Talk to Me.wav" WAVE TRACK 10 AUDIO TITLE "Talk to Me" PERFORMER "Pino Donaggio" REM COMPOSER "" ISRC US3M51617110 INDEX 01 00:00:00FILE "11. Pino Donaggio - Eagle House.wav" WAVE TRACK 11 AUDIO TITLE "Eagle House" PERFORMER "Pino Donaggio" REM COMPOSER "" ISRC US3M51617111 INDEX 01 00:00:00FILE "12. Pino Donaggio - Coco.wav" WAVE TRACK 12 AUDIO TITLE "Coco" PERFORMER "Pino Donaggio" REM COMPOSER "" ISRC US3M51617112 INDEX 01 00:00:00FILE "13. Pino Donaggio - Zelly.wav" WAVE TRACK 13 AUDIO TITLE "Zelly" PERFORMER "Pino Donaggio" REM COMPOSER "" ISRC US3M51617113 INDEX 01 00:00:00FILE "14. Pino Donaggio - The Birth of Socky.wav" WAVE TRACK 14 AUDIO TITLE "The Birth of Socky" PERFORMER "Pino Donaggio" REM COMPOSER "" ISRC US3M51617114 INDEX 01 00:00:00FILE "15. Pino Donaggio - I Want to Be With You.wav" WAVE TRACK 15 AUDIO TITLE "I Want to Be With You" PERFORMER "Pino Donaggio" REM COMPOSER "" ISRC US3M51617115 INDEX 01 00:00:00FILE "16. Pino Donaggio - This Is Who I Am.wav" WAVE TRACK 16 AUDIO TITLE "This Is Who I Am" PERFORMER "Pino Donaggio" REM COMPOSER "" ISRC US3M51617116 INDEX 01 00:00:00FILE "17. Pino Donaggio - The Locked Bedroom.wav" WAVE TRACK 17 AUDIO TITLE "The Locked Bedroom" PERFORMER "Pino Donaggio" REM COMPOSER "" ISRC US3M51617117 INDEX 01 00:00:00FILE "18. Pino Donaggio - Zelly and Me.wav" WAVE TRACK 18 AUDIO TITLE "Zelly and Me" PERFORMER "Pino Donaggio" REM COMPOSER "" ISRC US3M51617118 INDEX 01 00:00:00


Трекер:  [ 21-Июл-2018 14:06 ]

  

Скачать .torrent

Размер .torrent файла 12 KB


Размер: 268 MB
Хэш (hash) релиза: 90013604c9170588b5fb32eeb0f7c71ef42755f8

Еще никто не оставлял запись к записи скачать торрент Зелли и я Zelly And Me . Будь первым!

!Обратная связь