Скачать через торрент Щедрость Фильм бесплатно в хорошем качестве torrent

Скачивайте на UnionPeer.org фильмы через торрент без регистрации. Новинки кино в хорошем качестве через торрент. На UnionPeer.org можно скачать через торрент фильмы 2014 и 2015 годов. Самые новые фильмы.

Скачать торрент Щедрость бесплатно через .torrent фильм мультфильм сериал

Статистика раздачи
Размер:  190 MB   |    Зарегистрирован:  4 месяца 19 дней   |    .torrent скачан:  20 раз   |   
Раздают:  1  
   
загрузка...
 
Автор Сообщение

Galfimbul

avatar Galfimbul


Щедрость

Страна: Россия
Жанр: мультфильм, притча
Продолжительность: 00:19:50
Год выпуска: 1992

Режиссёры: Леонид Кощеников, Волеслав Стенинг

Описание: Философская притча для детей и взрослых о самопожертвовании и потребительстве.

Доп. информация: Фильм стал последней работой старейшего пермского режиссёра Леонида Кощеникова.
Подробней про пермскую мультипликацию здесь - ...5589820

Качество: WEBRip
Формат: AVI
Видео: 1200 kbps, 640х480 (4:3), 25.000 fps, MPEG-4 Visual (XviD)
Аудио: 128 kbps, 44.1 kHz, 2 channels, MPEG Audio (MP3)
Субтитры: отсутствуют
GeneralComplete name : Щедрость. 1992.aviFormat : AVIFormat/Info : Audio Video InterleaveFile size : 190 MiBDuration : 19mn 50sOverall bit rate : 1 338 KbpsWriting application : VirtualDubMod 1.5.10.2 (build 2540/release)Writing library : VirtualDubMod build 2540/release

VideoID : 0Format : MPEG-4 VisualFormat profile : Advanced Simple@L5Format settings, BVOP : 3Format settings, QPel : NoFormat settings, GMC : No warppointsFormat settings, Matrix : Default (H.263)Codec ID : XVIDCodec ID/Hint : XviDDuration : 19mn 50sBit rate : 1 200 KbpsWidth : 640 pixelsHeight : 480 pixelsDisplay aspect ratio : 4:3Frame rate : 25.000 fpsColor space : YUVChroma subsampling : 4:2:0Bit depth : 8 bitsScan type : ProgressiveCompression mode : LossyBits/(Pixel*Frame) : 0.156Stream size : 170 MiB (90%)Writing library : XviD 1.2.1 (UTC 2008-12-04)

AudioID : 1Format : MPEG AudioFormat version : Version 1Format profile : Layer 3Codec ID : 55Codec ID/Hint : MP3Duration : 19mn 50sBit rate mode : ConstantBit rate : 128 KbpsChannel(s) : 2 channelsSampling rate : 44.1 KHzCompression mode : LossyStream size : 18.2 MiB (10%)Alignment : Split accross interleavesInterleave, duration : 40 ms (1.00 video frame)Interleave, preload duration : 500 ms


Трекер:  [ 21-Июл-2018 15:01 ]

  

Скачать .torrent

Размер .torrent файла 15 KB


Размер: 190 MB
Хэш (hash) релиза: ca4139f9a62ed4561a83c5dac8446a91f485d303
Подписка на обновления:

Торренты, похожие на Щедрость скачать торрент

Форум Название Автор Размер S L Добавлен
Мультфильмы до 2016 ·· Щедрость / Dosnumas (Зенонас Штейнис) [1988, рисованный мультфильм, DVDRip] Galfimbul 166881280159 MB 0 0 1412779491

17:44

8-Окт-14

Зарубежные фильмы до 2016 ·· Щедрость Перрье / Награда от Перрье / Perrier's Bounty (Йен Фитцгиббон / Ian Fitzgibbon) [2009, Великобритания, Ирландия, боевик, триллер, драма, комедия, криминал, Blu-ray disc (custom) 1080p] AVO Sub rus + original eng Captain Claw 2098577681219.54 GB 0 0 1295732233

00:37

23-Янв-11

Зарубежные фильмы до 2016 ·· Щедрость Перрье / Награда от Перрье / Perrier's Bounty (Йен Фитцгиббон / Ian Fitzgibbon) [2009 г., боевик, триллер, драма, комедия, криминал, BDRip 720p] AVO (Сербин) mikxtor 46953580044.37 GB 0 0 1293739499

23:04

30-Дек-10

Зарубежные фильмы до 2016 ·· Щедрость Перрье / Награда от Перрье / Perrier's Bounty (Йен Фитцгиббон / Ian Fitzgibbon) [2009 г., боевик, триллер, драма, комедия, криминал, BDRip 1080p] AVO (Сербин) mikxtor 85321031667.95 GB 0 0 1293739026

22:57

30-Дек-10

Зарубежные фильмы до 2016 ·· Щедрость Перрье / Награда от Перрье / Perrier's Bounty (Йен Фитцгиббон / Ian Fitzgibbon) [2009 г., боевик, триллер, драма, комедия, криминал, BDRemux 1080p] AVO (Сербин) mikxtor 1633192418115.21 GB 0 0 1293738367

22:46

30-Дек-10

Еще никто не оставлял запись к записи скачать торрент Щедрость . Будь первым!

!Обратная связь