Скачать через торрент Первая охота Фильм бесплатно в хорошем качестве torrent

Скачивайте на UnionPeer.org фильмы через торрент без регистрации. Новинки кино в хорошем качестве через торрент. На UnionPeer.org можно скачать через торрент фильмы 2014 и 2015 годов. Самые новые фильмы.

Скачать торрент Первая охота бесплатно через .torrent фильм мультфильм сериал

Статистика раздачи
Размер:  281 MB   |    Зарегистрирован:  4 месяца 21 день   |    .torrent скачан:  28 раз   |   
Раздают:  1  
   
загрузка...
 
Автор Сообщение

Galfimbul

avatar Galfimbul


Первая охота
Страна: СССР
Студия: Ленфильм
Жанр: мультфильм
Год выпуска: 1937
Продолжительность: 00:07:13
Режиссер: Павел Шмидт
Описание: По рассказу Виталия Бианки. О неудавшейся охоте щенка за бабочкой, выпью и удодом.
Релиз:
Доп.информация: За запись с телеканала "Культура" спасибо коллеге Cheef mate.
Тип релиза: DVB
Контейнер: MPG

Видео: 720x576 (16:9) @ 1024x576, 25.000 fps, MPEG-2 Video, ~5083 Kbps, 0.490 bits/pixel
Аудио: Русский, 48.0 KHz, MPEG-1 Audio layer 2, 2 ch, 256 Kbps
GeneralComplete name : Первая охота 1937 Ленфильм.mpgFormat : MPEG-PSFile size : 281 MiBDuration : 7 min 13 sOverall bit rate mode : VariableOverall bit rate : 5 444 kb/s

VideoID : 224 (0xE0)Format : MPEG VideoFormat version : Version 2Format profile : Main@MainFormat settings : CustomMatrix / BVOPFormat settings, BVOP : YesFormat settings, Matrix : CustomFormat settings, GOP : M=3, N=15Format settings, picture structure : FrameDuration : 7 min 13 sBit rate mode : VariableBit rate : 5 080 kb/sMaximum bit rate : 15.0 Mb/sWidth : 720 pixelsHeight : 576 pixelsDisplay aspect ratio : 16:9Frame rate : 25.000 FPSStandard : PALColor space : YUVChroma subsampling : 4:2:0Bit depth : 8 bitsScan type : InterlacedScan order : Top Field FirstCompression mode : LossyBits/(Pixel*Frame) : 0.490Time code of first frame : 00:00:00:00Time code source : Group of pictures headerGOP, Open/Closed : ClosedStream size : 262 MiB (93%)

AudioID : 192 (0xC0)Format : MPEG AudioFormat version : Version 1Format profile : Layer 2Duration : 7 min 13 sBit rate mode : ConstantBit rate : 256 kb/sChannel(s) : 2 channelsSampling rate : 48.0 kHzFrame rate : 41.667 FPS (1152 SPF)Compression mode : LossyStream size : 13.2 MiB (5%)


Трекер:  [ 21-Июл-2018 15:30 ]

  

Скачать .torrent

Размер .torrent файла 11 KB


Размер: 281 MB
Хэш (hash) релиза: bbf8cfc935dcb390687a35a99a1c0b628ef03173
Подписка на обновления:

Еще никто не оставлял запись к записи скачать торрент Первая охота . Будь первым!

!Обратная связь