Скачать через торрент Последний период: История бесконечной спирали Last Period: Owarinaki Rasen no Monogatari бесплатно Аниме Все серии на русском torrent

Статистика раздачи
Размер:  24.74 GB   |    Зарегистрирован:  2 месяца 26 дней   |    .torrent скачан:  25 раз   |   
Раздают:  1  
   
загрузка...
 
Автор Сообщение

Galfimbul

avatar Galfimbul


Последний период: История бесконечной спирали / Last Period: Owarinaki Rasen no Monogatari

Год выпуска: 2018
Страна: Япония
Жанр: приключения, комедия, фэнтези
Тип: TV
Продолжительность: 12 эп. по 24 мин.
Озвучка: нет

Русские субтитры: есть (отдельным файлом, формат .ass)
Перевод:

[CrunchyRoll]

Хардсаб: Нет
Режиссер: Ивасаки Ёсиаки
Студия: J.C. Staff

Описание: В мире, где происходит действие этого аниме, идёт постоянное противостояние людей и монстров. Монстры, называемые Спиралями, всё время умудряются вырываться из заточения и доставлять людям массу неприятностей. Но и люди тоже не лыком шиты. Для борьбы со Спиралями существует целая организация, в которой работают маги, или как их ещё называют, Периоды. Такая ситуация длится уже долго, но в последнее время число Спиралей начало неуклонно возрастать.

Тогда 14-летний Период по имени Хару, служащий в Восьмом Подразделении, решает разорвать цепь бесконечной борьбы со Спиралями и готовится к длительному бою. Но беда пришла, откуда её не ждали. Из-за действий таинственных злоумышленников, его подразделение обанкрочивается, и славному пути Хару в роли спасителя мира приходит конец. Приходится Хару взять своих товарищей в оборот и отправиться на помощь подразделению. И для того, чтобы заработать деньжат на восстановление своего рабочего места, им приходится браться за разные задания, порой даже весьма сомнительные.

Качество: Blu-Ray Remux
Формат: MKV
Видео кодек: AVC
Аудио кодек: FLAC
Видео: 1920x1080 (16:9) 23,976 fps ~35,8 Mbps 8bit
Аудио:
Jap FLAC, 48000Hz, ~686 Kbps, 2ch

Чаптеры присутствуют.
01. Уведомление о закрытии
02. Горячие источники
03. Горячие источники
04. Усыпанные зэль
05. Название болота
06. Признания маски
07. Друзья животные
08. Серия с купальниками
09. Расширяющаяся галактика
10. Счастливые моменты
11. Выдуманная история
12. Последний период
Общее
Уникальный идентификатор : 228991356158435101397177969963346567391 (0xAC4621881C62DF97020E777F4C2A20DF)
Полное имя : Z:\Anime Release - working\Last Period\[anti-raws]Last Period - Owarinaki Rasen no Monogatari ep.01[BDRemux].mkv
Формат : Matroska
Версия формата : Version 4 / Version 2
Размер файла : 6,18 Гбайт
Продолжительность : 23 м. 41 с.
Режим общего битрейта : Переменный
Общий поток : 37,3 Мбит/сек
Дата кодирования : UTC 2018-07-21 13:45:25
Программа кодирования : mkvmerge v25.0.0 ('Prog Noir') 64-bit
Библиотека кодирования : libebml v1.3.6 + libmatroska v1.4.9

Видео
Идентификатор : 2
Формат : AVC
Формат/Информация : Advanced Video Codec
Профиль формата : High@L4.1
Настройки формата : CABAC / 4 Ref Frames
Параметр CABAC формата : Да
Параметр RefFrames формата : 4 кадра
Идентификатор кодека : V_MPEG4/ISO/AVC
Продолжительность : 23 м. 41 с.
Вид битрейта : Постоянный
Битрейт : 36,6 Мбит/сек
Номинальный битрейт : 39,0 Мбит/сек
Ширина : 1920 пикселей
Высота : 1080 пикселей
Соотношение сторон : 16:9
Режим частоты кадров : Постоянный
Частота кадров : 23,976 (24000/1001) кадра/сек
Цветовое пространство : YUV
Субдискретизация насыщенности : 4:2:0
Битовая глубина : 8 бит
Тип развёртки : Прогрессивная
Бит/(Пиксели*Кадры) : 0.737
Размер потока : 6,06 Гбайт (98%)
Default : Нет
Forced : Нет

Аудио
Идентификатор : 1
Формат : FLAC
Формат/Информация : Free Lossless Audio Codec
Идентификатор кодека : A_FLAC
Продолжительность : 23 м. 41 с.
Вид битрейта : Переменный
Битрейт : 686 Кбит/сек
Каналы : 2 канала
Расположение каналов : Front: L R
Частота : 48,0 КГц
Частота кадров : 11,719 кадров/сек (4096 SPF)
Битовая глубина : 16 бит
Размер потока : 116 Мбайт (2%)
Библиотека кодирования : libFLAC 1.2.1 (UTC 2007-09-17)
Язык : Japanese
Default : Да
Forced : Нет

Меню
00:00:00.000 : en:00:00:00.000
00:01:07.985 : en:00:01:07.985
00:02:38.033 : en:00:02:38.033
00:11:32.025 : en:00:11:32.025
00:22:04.990 : en:00:22:04.990
00:23:34.997 : en:00:23:34.997
...5565626
--WEBRip

Эта раздача - BDRemux


Трекер:  [ 21-Июл-2018 20:01 ]

  

Скачать .torrent

Размер .torrent файла 32 KB


Размер: 24.74 GB
Хэш (hash) релиза: 7d8473c73c0061269bfa13670cf36ec49fcc6443
Подписка на обновления:

Торренты, похожие на Последний период: История бесконечной спирали Last Period: Owarinaki Rasen no Monogatari скачать торрент

Форум Название Автор Размер S L Добавлен
Аниме | HD Rips ·· Последний период: История бесконечной спирали / Last Period: Owarinaki Rasen no Monogatari [TV] [1-6 из 12] [Без хардсаба] [JAP+SUB] [2018, приключения, комедия, фэнтези, WEBRip] [720p] Galfimbul 26099455792.43 GB 0 0 1527100209

21:30

23-Май-18

Еще никто не оставлял запись к записи скачать торрент Последний период: История бесконечной спирали Last Period: Owarinaki Rasen no Monogatari . Будь первым!

!Обратная связь