Скачать через торрент Елена - принцесса Авалора Elena of Avalor Фильм бесплатно в хорошем качестве torrent

Скачивайте на UnionPeer.org фильмы через торрент без регистрации. Новинки кино в хорошем качестве через торрент. На UnionPeer.org можно скачать через торрент фильмы 2014 и 2015 годов. Самые новые фильмы.

Скачать торрент Елена - принцесса Авалора Elena of Avalor бесплатно через .torrent фильм мультфильм сериал

Статистика раздачи
Размер:  8.26 GB   |    Зарегистрирован:  4 месяца 22 дня   |    .torrent скачан:  53 раза   |   
Раздают:  1  
   
загрузка...
 
Автор Сообщение

Galfimbul

avatar Galfimbul


Елена - принцесса Авалора / Elena of Avalor

Страна: США
Жанр: Мультсериал
Продолжительность серии: 00:23:00
Год выпуска: 2016
Перевод: Профессиональный (дублированный)
Русские субтитры: нет

Режиссёр: Craig Gerber / Крэг Гербер
Описание: Удивительная история юной Елены, наследницы трона королевства Авалор. В день празднования пятнадцатилетия принцессы, на Авалор напала злая колдунья, которая заточила Елену в магический амулет. Лишь спустя 41 год ей удалось освободиться от заклятия, при этом не постарев ни на день! Теперь законная наследница трона должна занять место, принадлежащее ей по праву. С помощью своего волшебного дара, мудрых советов наставников и, конечно, поддержки друзей, добрая и смелая Елена старается достойно справляться с новой ролью.

Семпл: https://www.sendspace.com/file/bd91dm

Качество: WEB-DLRip
Формат: AVI
Видео: XVID; 720х400 (16:9); 1806 Кбит/сек; 23,976 (24000/1001) кадра/сек
Аудио: AC-3; 192 Кбит/сек; 2 канала; 48,0 КГц
Субтитры: нет
1 серия. Первый день правления / First Day of Rule
2 серия. Идеальная сестра / Model Sister
3 серия. Жгучая ярость / All Heated Up
4 серия. Остров юности / Island of Youth
5 серия. Заколдованные / Spellbound
6 серия. Самовлюбленный принц / Prince Too Charming
7 серия. Нашлись и потерялись / Finders Leapers
8 серия. Королевский клуб / Royal Retreat
9 серия. День памяти / A Day to Remember
10 серия. Скипетр света / The Scepter of Light
11 серия. Навидад / Navidad
12 серия. Олабол / Olaball
13 серия. Полет ягуаров / Flight of the Jaquins
14 серия. Хрустальная ловушка / Crystal in the Rough
15 серия. Принцесса-рыцарь / The Princess Knight
16 серия. Возвращение капитана Тёрнер / Captain Turner Returns
17 серия. Король карнавала / King of the Carnaval
18 серия. Моя дорогая Наоми / My Fair Naomi
19 серия. Обезьяньи замашки / Spirit Monkey Business
20 серия. Ученик волшебника / Wizard in Training
21 серия. Королевство крылатых ягуаров / Realm of the Jaquins
22 серия. Проклятие геккона / The Gecko's Tale
23 серия. Вечеринка, длиною в жизнь / Party of a Lifetime
24 серия. Живые статуэтки / Blockheads
25 серия. Волшебные маски / Masks of Magic
ОбщееПолное имя : D:\закачки\Елена [rutracker.org]\01 Первый день правления.aviФормат : AVIФормат/Информация : Audio Video InterleaveРазмер файла : 351 МбайтПродолжительность : 24 м. 27 с.Общий поток : 2007 Кбит/секПрограмма кодирования : VirtualDubMod 1.5.10.2 (build 2540/release)Библиотека кодирования : VirtualDubMod build 2540/release

ВидеоИдентификатор : 0Формат : MPEG-4 VisualПрофиль формата : Advanced Simple@L5Настройки формата : BVOP1Параметр BVOP формата : 1Параметр QPel формата : НетПараметр GMC формата : Без точки переходаПараметр матрицы формата : Default (H.263)Идентификатор кодека : XVIDИдентификатор кодека/Подсказка : XviDПродолжительность : 24 м. 27 с.Битрейт : 1806 Кбит/секШирина : 720 пикселейВысота : 400 пикселейСоотношение сторон : 16:9Частота кадров : 23,976 (24000/1001) кадра/секЦветовое пространство : YUVСубдискретизация насыщенности : 4:2:0Битовая глубина : 8 битТип развёртки : ПрогрессивнаяМетод сжатия : С потерямиБит/(Пиксели*Кадры) : 0.262Размер потока : 316 Мбайт (90%)Библиотека кодирования : XviD 1.2.1 (UTC 2008-12-04)

АудиоИдентификатор : 1Формат : AC-3Формат/Информация : Audio Coding 3Идентификатор кодека : 2000Продолжительность : 24 м. 27 с.Вид битрейта : ПостоянныйБитрейт : 192 Кбит/секКаналы : 2 каналаРасположение каналов : Front: L RЧастота : 48,0 КГцЧастота кадров : 31,250 кадров/сек (1536 SPF)Битовая глубина : 16 битМетод сжатия : С потерямиРазмер потока : 33,6 Мбайт (10%)Выравнивание : Соединение по промежуткамПродолжительность промежутка : 42 мс. (1,00 видеокадр)Время предзагрузки промежутка : 512 мс.ServiceKind/String : Complete Main
<div class="post-box-default">
<div class="post-box" style="border-color: #E1BC88;">сэмпл
</div>
</div>
<div class="post-box-default">
<div class="post-box" style="border-color: #E1BC88;">все раздачи
</div>
</div>

Трекер:  [ 21-Июл-2018 23:24 ]

  

Скачать .torrent

Размер .torrent файла 43 KB


Размер: 8.26 GB
Хэш (hash) релиза: bded6493540fc6d3ceee5c0ef985d3176029d7f9
Подписка на обновления:

Еще никто не оставлял запись к записи скачать торрент Елена - принцесса Авалора Elena of Avalor . Будь первым!

!Обратная связь