Скачать через торрент Врата Штейна 0 Steins;Gate 0 бесплатно Аниме Все серии на русском torrent

Статистика раздачи
Размер:  21.31 GB   |    Зарегистрирован:  2 месяца 25 дней   |    .torrent скачан:  25 раз   |   
Раздают:  1  
   
загрузка...
 
Автор Сообщение

Galfimbul

avatar Galfimbul


Врата Штейна 0 / Steins;Gate 0

Год выпуска: 2018
Страна: Япония
Жанр: триллер, фантастика, драма
Тип: TV
Продолжительность: 23 эп. по 24 мин.
Озвучка:

Двухголосая (муж/жен) от Zendos & Eladiel (Onibaku)
Двухголосая (муж/жен) от Sad_Kit & Milirina (Anything Group)
Двухголосая (муж/жен) от JAM & Oriko (JAM CLUB)

Русские субтитры: есть (отдельным файлом, формат .ass)
Перевод:

Sa4ko aka Kiyoso
DanielB, Dotonbori Roma, Izakaya, onami [2nd Division]
KBOPYM, Ristretto [SovetRomantica]
Hariken [AniPlay]

Хардсаб: Нет
Режиссер: Кавамура Кэнъити
Студия: White Fox

Описание: Действие происходит во временной линии бета. Ринтаро Окабэ, путешествуя во времени, пытался спасти возлюбленную, но вместо этого случайно ее убил. Страдая от посттравматического синдрома и чувства вины, парень узнает, что есть программа, позволяющая сгружать сознание человека в искусственный интеллект. И к его удивлению, оказывается, существует цифровая версия его погибшей девушки.

Качество: Blu-Ray Remux
Формат: MKV
Видео кодек: AVC
Аудио кодек: FLAC
Видео: 1920x1080 (16:9) 23,976 fps ~27,6 Mbps 8bit
Аудио:
Jap FLAC, 48000Hz, ~1378 Kbps, 2ch
RUS 1 (ext) AAC, 48000Hz, ~224 Kbps, 2ch
RUS 2 (ext) AC3, 48000Hz, ~192 Kbps, 2ch
RUS 3 (ext) AAC, 48000Hz, ~192 Kbps, 2ch

Чаптеры присутствуют.
01. Аннулятор. Недостающее звено. Абсолютный ноль
02. Эпиграф замкнутой кривой
03. Протокол двойственного Евангелия. Протокол дня икс
04. Одиночество бесконечной череды утрат. Заблудшая овца
05. Астигматическое одиночество. Запутавшаяся овечка
06. Орбитальное упорядочение затмения. Орбитальное затмение
07. Затмение электронно-колебательного перехода. Электронно-колебательный переход
08. Антиномическая двойственность
09. Пандора бесконечных возвращении. Ящик Пандоры
10. Доказательство существования Пандоры. Запретная комната
11. Пандора забвения бытия. Запечатанный ковчег
12. Рекурсивная матушка Гусыня
Общее
Уникальный идентификатор : 163671891573396122650743723878070920134 (0x7B220F48BBB28885C77EEDFB6B8CA3C6)
Полное имя : Z:\Anime Release - working\Steins;Gate 0\[anti-raws]Steins;Gate 0 ep.01[BDRemux].mkv
Формат : Matroska
Версия формата : Version 4 / Version 2
Размер файла : 4,96 Гбайт
Продолжительность : 23 м. 56 с.
Режим общего битрейта : Переменный
Общий поток : 29,6 Мбит/сек
Дата кодирования : UTC 2018-07-21 13:48:44
Программа кодирования : mkvmerge v25.0.0 ('Prog Noir') 64-bit
Библиотека кодирования : libebml v1.3.6 + libmatroska v1.4.9

Видео
Идентификатор : 2
Формат : AVC
Формат/Информация : Advanced Video Codec
Профиль формата : High@L4.1
Настройки формата : CABAC / 4 Ref Frames
Параметр CABAC формата : Да
Параметр RefFrames формата : 4 кадра
Идентификатор кодека : V_MPEG4/ISO/AVC
Продолжительность : 23 м. 56 с.
Вид битрейта : Постоянный
Битрейт : 28,3 Мбит/сек
Номинальный битрейт : 30,0 Мбит/сек / 30,0 Мбит/сек
Ширина : 1920 пикселей
Высота : 1080 пикселей
Соотношение сторон : 16:9
Режим частоты кадров : Постоянный
Частота кадров : 23,976 (24000/1001) кадра/сек
Стандарт вещания : Component
Цветовое пространство : YUV
Субдискретизация насыщенности : 4:2:0
Битовая глубина : 8 бит
Тип развёртки : Прогрессивная
Бит/(Пиксели*Кадры) : 0.568
Размер потока : 4,73 Гбайт (95%)
Библиотека кодирования : x264 core 136
Настройки программы : cabac=1 / ref=4 / deblock=1:0:0 / analyse=0x3:0x113 / me=hex / subme=7 / psy=1 / psy_rd=1.00:0.00 / mixed_ref=1 / me_range=16 / chroma_me=1 / trellis=1 / 8x8dct=1 / cqm=2 / deadzone=21,11 / fast_pskip=1 / chroma_qp_offset=-2 / threads=6 / lookahead_threads=1 / sliced_threads=0 / slices=4 / nr=0 / decimate=1 / interlaced=0 / bluray_compat=1 / constrained_intra=0 / bframes=3 / b_pyramid=0 / b_adapt=1 / b_bias=0 / direct=1 / weightb=1 / open_gop=1 / weightp=1 / keyint=24 / keyint_min=1 / scenecut=40 / intra_refresh=0 / rc_lookahead=24 / rc=cbr / mbtree=1 / bitrate=30000 / ratetol=1.0 / qcomp=0.60 / qpmin=3 / qpmax=69 / qpstep=4 / vbv_maxrate=30000 / vbv_bufsize=30000 / nal_hrd=cbr / ip_ratio=1.40 / aq=1:1.00
Default : Нет
Forced : Нет
Цветовой диапазон : Limited
Основные цвета : BT.709
Характеристики трансфера : BT.709
Коэффициенты матрицы : BT.709

Аудио
Идентификатор : 1
Формат : FLAC
Формат/Информация : Free Lossless Audio Codec
Идентификатор кодека : A_FLAC
Продолжительность : 23 м. 56 с.
Вид битрейта : Переменный
Битрейт : 1377 Кбит/сек
Каналы : 2 канала
Расположение каналов : Front: L R
Частота : 48,0 КГц
Частота кадров : 11,719 кадров/сек (4096 SPF)
Битовая глубина : 24 бит
Размер потока : 236 Мбайт (5%)
Библиотека кодирования : libFLAC 1.2.1 (UTC 2007-09-17)
Язык : Japanese
Default : Да
Forced : Нет

Меню
00:00:00.000 : en:00:00:00.000
00:03:43.014 : en:00:03:43.014
00:10:36.010 : en:00:10:36.010
00:22:03.864 : en:00:22:03.864
00:23:40.002 : en:00:23:40.002
...5574733
--HDTVRip

...5548343
...5560189
--WEBRip

Эта раздача - BDRemux


Трекер:  [ 22-Июл-2018 12:30 ]

  

Скачать .torrent

Размер .torrent файла 35 KB


Размер: 21.31 GB
Хэш (hash) релиза: 382b1cfb1631412b17cfe9c682afa481dc05b905
Подписка на обновления:

Еще никто не оставлял запись к записи скачать торрент Врата Штейна 0 Steins;Gate 0 . Будь первым!

!Обратная связь