Скачать через торрент Моспида - оружие выживания Kikou Souseiki Mospeada бесплатно Аниме Все серии на русском torrent

Статистика раздачи
Размер:  11.03 GB   |    Зарегистрирован:  4 месяца 20 дней   |    .torrent скачан:  61 раз   |   
Раздают:  1  
   
загрузка...
 
Автор Сообщение

Galfimbul

avatar Galfimbul


Моспида - оружие выживания / Kikou Souseiki Mospeada

Год выпуска: 1983
Страна: Япония
Жанр: фантастика, меха
Тип: TV
Продолжительность: 25 эп. по 24 мин.
Озвучка: нет

Русские субтитры: есть (отдельным файлом, формат .srt)
Перевод:

Tevia

Хардсаб: Нет
Режиссер: Ямада Кацухиса
Студия: Tatsunoko

Описание: В 2050 году в Солнечную систему вторглись пришельцы, называемые инбитами. Превосходя количеством и мощью, они нанесли сокрушительное поражение человеческой расе и оккупировали Землю. Всегда находясь в своих мехах, инбиты скрывали свою сущность. Единственные свободные люди находятся на Марсе и лунах Юпитера. Вскоре после поражения была предпринята миссия по отвоёвыванию Земли, но потерпела неудачу.

Тридцать лет спустя, в 2080 году, дети тех солдат, которые впервые шли отвоёвывать Землю, вооружены новыми трансформирующимися мехами - Легиоссами. С надеждой они снова вступили в бой с инбитами, но их атаку ожидал такой же успех, как 30 лет назад.

И вот, три года спустя, База Марса запускает Вторые Войска Отвоевания Земли, состоящие из сотен кораблей и роботов. Среди них - 21-я Тяжёлая Дивизия под командованием капитан-лейтенанта Стига Бернарда. И хотя они отважно сражались, солдаты Марса потерпели тяжёлое поражение. Во время сражения погибла невеста Стига, и его Легиосс совершил аварийную посадку в Южной Америке. Обратив страдания и горечь утраты в обещание мести, Стиг начинает свой долгий путь на север, в точку Reflex Point, главную базу инбитов. На своём пути он встречает харизматичных личностей, каждый из которых ведёт свою собственную войну против захватчиков. Рэй, самонадеянный молодой странник, верящий в высокие идеалы; Йэллоу, загадочный бывший пилот Марса, маскирующийся под певицу(!); Ху:кэ, девушка-одинокий волк со стальным нравом; Джим, робомеханик, ненавидящий войну; Минт, озорная девчонка, приносящая хлопоты. Все они разные, но объединяет их одно - стремление бороться против захватчиков. Они вместе выбрали этот путь, хотя цель кажется призрачной, недостижимой. Но каждому их них нечего терять. И как долго смогут герои вести эту партизанскую войну?

© Elix, World Art

Качество: Blu-Ray Remux
Формат: MKV
Видео кодек: AVC
Аудио кодек: FLAC
Видео: 1920x1080 (16:9) 23,976 fps ~33 Mbps 8bit
Аудио:
Jap FLAC, 48000Hz, ~537 Kbps, 2ch

Чаптеры присутствуют.
01. Prelude To The Attack
02. March Of A Girl with A Broken Heart
03. Midday Duel Concert
04. Feeling Like A Survival Song
05. Live-In Robbery Operation
06. Pretend Tough Girl Blues
07. Ragtime for a Brave Dead Man
08. Jonathan's Elegy
09. Lost World Fugue
10. Battlefield Requiem
11. Lullaby of Far Away Hope
12. Break Through the Fort Boogie
13. Sand Storm Playback
14. Mint's Wedding March
15. Breaking Up Ballad
16. Trap Reggae
17. White Night Serenade
18. Old Soldier's Polka
19. Icy City Forte
20. Birthday Song in the Night Sky
21. Arpeggio of a Killer
22. NY Bebop
23. Brunet's Partita
24. Darkness' Finale
25. Symphony of the Light
Общее
Уникальный идентификатор : 240454458068722247426180296473004266952 (0xB4E5D8174DE7F9FEABA579BE6674D5C8)
Полное имя : M:\pub\Video\Anime\Kikou Souseiki Mospeada\[anti-raws]Kikou Souseiki Mospeada ep.01[BDRemux].mkv
Формат : Matroska
Версия формата : Version 4 / Version 2
Размер файла : 5,51 Гбайт
Продолжительность : 22 м. 57 с.
Режим общего битрейта : Переменный
Общий поток : 34,3 Мбит/сек
Дата кодирования : UTC 2017-11-20 23:15:56
Программа кодирования : mkvmerge v17.0.0 ('Be Ur Friend') 64-bit
Библиотека кодирования : libebml v1.3.5 + libmatroska v1.4.8

Видео
Идентификатор : 2
Формат : AVC
Формат/Информация : Advanced Video Codec
Профиль формата : High@L4.1
Настройки формата : CABAC / 2 Ref Frames
Параметр CABAC формата : Да
Параметр RefFrames формата : 2 кадра
Идентификатор кодека : V_MPEG4/ISO/AVC
Продолжительность : 22 м. 57 с.
Вид битрейта : Переменный
Битрейт : 33,8 Мбит/сек
Ширина : 1920 пикселей
Высота : 1080 пикселей
Соотношение сторон : 16:9
Режим частоты кадров : Постоянный
Частота кадров : 23,976 (24000/1001) кадра/сек
Цветовое пространство : YUV
Субдискретизация насыщенности : 4:2:0
Битовая глубина : 8 бит
Тип развёртки : Прогрессивная
Бит/(Пиксели*Кадры) : 0.680
Размер потока : 5,42 Гбайт (98%)
Default : Нет
Forced : Нет

Аудио
Идентификатор : 1
Формат : FLAC
Формат/Информация : Free Lossless Audio Codec
Идентификатор кодека : A_FLAC
Продолжительность : 22 м. 57 с.
Вид битрейта : Переменный
Битрейт : 537 Кбит/сек
Каналы : 2 канала
Расположение каналов : Front: L R
Частота : 48,0 КГц
Частота кадров : 11,719 кадров/сек (4096 SPF)
Битовая глубина : 16 бит
Размер потока : 88,2 Мбайт (2%)
Библиотека кодирования : libFLAC 1.2.1 (UTC 2007-09-17)
Язык : Japanese
Default : Да
Forced : Нет

Меню
00:00:00.000 : en:00:00:00.000
00:01:21.999 : en:00:01:21.999
00:11:47.582 : en:00:11:47.582
00:21:22.948 : en:00:21:22.948
00:22:32.893 : en:00:22:32.893


Трекер:  [ 22-Июл-2018 19:30 ]

  

Скачать .torrent

Размер .torrent файла 14 KB


Размер: 11.03 GB
Хэш (hash) релиза: ddf991081ba24b7139067e638f5481af99d82916
Подписка на обновления:

Еще никто не оставлял запись к записи скачать торрент Моспида - оружие выживания Kikou Souseiki Mospeada . Будь первым!

!Обратная связь