Скачать через торрент Регистратор Фильм бесплатно в хорошем качестве torrent

Скачивайте на UnionPeer.org фильмы через торрент без регистрации. Новинки кино в хорошем качестве через торрент. На UnionPeer.org можно скачать через торрент фильмы 2014 и 2015 годов. Самые новые фильмы.

Скачать торрент Регистратор бесплатно через .torrent фильм мультфильм сериал

Статистика раздачи
Размер:  1.23 GB   |    Зарегистрирован:  3 месяца   |    .torrent скачан:  45 раз   |   
Раздают:  1  
   
загрузка...
 
Автор Сообщение

Galfimbul

avatar Galfimbul


Регистратор
Страна: Казахстан
Жанр: комедия
Продолжительность: 01:18:43
Год выпуска: 2018
Перевод: не требуется
Субтитры: отсутствуют
Режиссёр: Мейирхан Шерниязов
В ролях: Мейирхан Шерниязов, Мейржан Туребаев, Медет Аманбаев, Абунасыр Сериков, Бауыржан Нурымов, Едил Анарбай, Наргиза Бегимбетова-Рахимбекова, Улжалгас Чемирбаева, Даулет Нуразхан...
О фильме: Молодой парень по имени Ержан устраивается на работу водителем богатого, но очень мелочного и щепетильного бизнесмена. С первых минут знакомства начальник Ержана всеми своими действиями и словами показывает, что автомобиль класса "люкс" очень дорог ему. Он бережно относится к каждой детали этой машины. В первый же день работы шеф Ержана, улетая в другой город, приказывает ему отвезти и поставить машину на стоянку. По дороге на стоянку Ержан встречает двух своих друзей, которые, в свою очередь, создают кучу непредвиденных и нелепых проблем с машиной Ержана. Пытаясь решить одну проблему, они находят другую.
Сможет ли Ержан доставить машину шефа на стоянку в целости и сохранности?

Семпл: https://www.sendspace.com/file/7q8mkh
Качество: DVB [НТК] (эфир 22.07.2018)
Формат: TS
Видео: AVC, 720x576 @ 1047x576 (16:9), 25 fps, ~1936 kbps, 0.187 bit/pixel
Аудио: [RUS] 48 kHz, MP2, 1 ch, 192 kbps
GeneralID : 1 (0x1)Complete name : H:\Раздачи\Регистратор (2018) [DVB].tsFormat : MPEG-TSFile size : 1.23 GiBDuration : 1 h 18 minOverall bit rate mode : VariableOverall bit rate : 2 241 kb/s

VideoID : 67 (0x43)Menu ID : 1 (0x1)Format : AVCFormat/Info : Advanced Video CodecFormat profile : High@L3Format settings : CABAC / 3 Ref FramesFormat settings, CABAC : YesFormat settings, ReFrames : 3 framesFormat settings, GOP : M=4, N=24Codec ID : 27Duration : 1 h 18 minBit rate : 1 936 kb/sWidth : 720 pixelsHeight : 576 pixelsDisplay aspect ratio : 16:9Frame rate : 25.000 FPSStandard : ComponentColor space : YUVChroma subsampling : 4:2:0Bit depth : 8 bitsScan type : InterlacedScan type, store method : Separated fieldsScan order : Top Field FirstBits/(Pixel*Frame) : 0.187Stream size : 1.06 GiB (86%)Color range : LimitedColor primaries : BT.601 PALTransfer characteristics : BT.470 System B/GMatrix coefficients : BT.470 System B/G

AudioID : 68 (0x44)Menu ID : 1 (0x1)Format : MPEG AudioFormat version : Version 1Format profile : Layer 2Codec ID : 3Duration : 1 h 18 minBit rate mode : ConstantBit rate : 192 kb/sChannel(s) : 1 channelSampling rate : 48.0 kHzFrame rate : 41.667 FPS (1152 SPF)Compression mode : LossyStream size : 108 MiB (9%)Language : English


Трекер:  [ 23-Июл-2018 05:54 ]

  

Скачать .torrent

Размер .torrent файла 12 KB


Размер: 1.23 GB
Хэш (hash) релиза: 6344c4945705f29785c0efdd37a71de011f501f8
Подписка на обновления:

Еще никто не оставлял запись к записи скачать торрент Регистратор . Будь первым!

!Обратная связь