Скачать через торрент [MULT] Земля до начала времен: Коллекция The Land Before Time: Collection бесплатно русская версия torrent активатор

Статистика раздачи
Размер:  6.13 GB   |    Зарегистрирован:  2 месяца 24 дня   |    .torrent скачан:  16 раз   |   
Раздают:  1  
   
загрузка...
 
Автор Сообщение

Galfimbul

avatar Galfimbul



Земля до начала времен: Коллекция / The Land Before Time: Collection

Земля до начала времен / The Land Before Time

Год выпуска: 1988
Страна: США
Жанр: приключения, семейный, мультфильм
Продолжительность: 01:05:52
Перевод №1: русский Профессиональный (полное дублирование)
Перевод №2: русский Профессиональный (многоголосый, закадровый)
Перевод №3: русский Авторский (одноголосый, закадровый) Михаил Иванов
Субтитры: нет
Режиссер: Дон Блут / Don Bluth
Роли озвучивали: Гэбриел Дэймон, Кендес Хатсон, Джудит Барси, Уилл Райян, Пэт Хингл, Хелен Шейвер, Бёрк Бирнс и другие .
Описание: Было время, когда нога человека еще не ступала на Землю. То было время извергающихся вулканов, громадных землетрясений и ужасных катаклизмов. Наша планета тогда была населена удивительными и странными существами.
[i]Релиз группы

Качество: DVDRip / рип с DVD5 (Custom)
Формат: MP4
Видео кодек: H.264
Аудио кодек: AAC
Видео: 478x360 AR:1.33 1080 kbps 25 fps
Аудио №1: [Russian] 2ch 48 kHz 128 kbps - [Dub] Профессиональный (полное дублирование)
Аудио №2: [Russian] 2ch 48 kHz 128 kbps - [MVO] Профессиональный (многоголосый, закадровый)
Аудио №3: [Russian] 2ch 48 kHz 128 kbps - [VO] Авторский (одноголосый, закадровый) Михаил Иванов
<div class="sp-wrap">
<div class="sp-head folded">Logx264</div>
<div class="sp-body">avs [info]: 478x360p 1:1 @ 25/1 fps (cfr)
x264 [info]: using SAR=1/1
x264 [info]: using cpu capabilities: MMX2 SSE2Fast SSSE3 SSE4.2 AVX FMA3 BMI2 AVX2
x264 [info]: profile High, level 4.1

x264 [info]: frame I:629 Avg QP:19.21 size: 32251
x264 [info]: frame P:22447 Avg QP:22.34 size: 10012
x264 [info]: frame B:75727 Avg QP:24.57 size: 3809
x264 [info]: consecutive B-frames: 1.2% 1.3% 9.4% 37.9% 21.5% 22.2% 3.8% 1.2% 0.9% 0.5%
x264 [info]: mb I I16..4: 2.5% 76.9% 20.7%
x264 [info]: mb P I16..4: 0.3% 7.4% 1.9% P16..4: 41.5% 21.1% 18.5% 1.1% 0.4% skip: 7.8%
x264 [info]: mb B I16..4: 0.0% 0.7% 0.3% B16..8: 32.8% 9.5% 3.7% direct: 8.5% skip:44.4% L0:41.3% L1:45.2% BI:13.6%
x264 [info]: 8x8 transform intra:76.2% inter:46.7%
x264 [info]: direct mvs spatial:95.6% temporal:4.4%
x264 [info]: coded y,uvDC,uvAC intra: 95.6% 86.2% 56.1% inter: 27.1% 17.7% 4.9%
x264 [info]: i16 v,h,dc,p: 35% 18% 15% 33%
x264 [info]: i8 v,h,dc,ddl,ddr,vr,hd,vl,hu: 8% 9% 10% 9% 13% 10% 15% 9% 17%
x264 [info]: i4 v,h,dc,ddl,ddr,vr,hd,vl,hu: 8% 7% 4% 10% 15% 12% 16% 11% 17%
x264 [info]: i8c dc,h,v,p: 32% 30% 15% 23%
x264 [info]: Weighted P-Frames: Y:12.2% UV:5.8%
x264 [info]: ref P L0: 43.5% 11.7% 19.1% 6.4% 6.0% 4.1% 4.3% 2.2% 2.5% 0.3% 0.0%
x264 [info]: ref B L0: 73.7% 12.2% 5.3% 3.0% 2.1% 1.9% 1.2% 0.6%
x264 [info]: ref B L1: 94.9% 5.1%
x264 [info]: kb/s:1079.83

encoded 98803 frames, 41.60 fps, 1079.83 kb/s
GeneralComplete name : K:\Torrents\The Land Before Time Collection.1988-2007.DVDRip.x264.640x\The Land Before Time.1988.DVDRip.x264.640x.rip by Frost O.S.mp4Format : MPEG-4Format profile : 3GPP Release 6 GeneralCodec ID : 3gg6 (isom/3gg6/mp42)File size : 693 MiBDuration : 1 h 5 minOverall bit rate mode : VariableOverall bit rate : 1 471 kb/sEncoded date : UTC 2018-07-23 06:27:49Tagged date : UTC 2018-07-23 06:27:49Writing application : Yamb 2.1.0.0

VideoID : 1Format : AVCFormat/Info : Advanced Video CodecFormat profile : High@L4.1Format settings : CABAC / 9 Ref FramesFormat settings, CABAC : YesFormat settings, RefFrames : 9 framesCodec ID : avc1Codec ID/Info : Advanced Video CodingDuration : 1 h 5 minBit rate : 1 080 kb/sMaximum bit rate : 3 255 kb/sWidth : 478 pixelsHeight : 360 pixelsDisplay aspect ratio : 4:3Frame rate mode : ConstantFrame rate : 25.000 FPSColor space : YUVChroma subsampling : 4:2:0Bit depth : 8 bitsScan type : ProgressiveBits/(Pixel*Frame) : 0.251Stream size : 509 MiB (73%)Writing library : x264 core 152 r2851 ba24899Encoding settings : cabac=1 / ref=9 / deblock=1:-1:-1 / analyse=0x3:0x133 / me=umh / subme=10 / psy=1 / psy_rd=0.90:0.00 / mixed_ref=1 / me_range=48 / chroma_me=1 / trellis=2 / 8x8dct=1 / cqm=0 / deadzone=21,11 / fast_pskip=0 / chroma_qp_offset=-2 / threads=6 / lookahead_threads=1 / sliced_threads=0 / nr=0 / decimate=0 / interlaced=0 / bluray_compat=0 / constrained_intra=0 / bframes=9 / b_pyramid=2 / b_adapt=2 / b_bias=0 / direct=3 / weightb=1 / open_gop=0 / weightp=2 / keyint=250 / keyint_min=25 / scenecut=40 / intra_refresh=0 / rc=2pass / mbtree=0 / bitrate=1080 / ratetol=1.0 / qcomp=0.65 / qpmin=0 / qpmax=69 / qpstep=4 / cplxblur=20.0 / qblur=0.5 / ip_ratio=1.40 / pb_ratio=1.25 / aq=1:0.80Encoded date : UTC 2018-07-22 06:29:48Tagged date : UTC 2018-07-23 06:27:55Color range : LimitedColor primaries : BT.601 PALTransfer characteristics : BT.470 System B/GMatrix coefficients : BT.470 System B/G

Audio #1ID : 2Format : AACFormat/Info : Advanced Audio CodecFormat profile : LCCodec ID : mp4a-40-2Duration : 1 h 5 minBit rate mode : VariableBit rate : 128 kb/sMaximum bit rate : 138 kb/sChannel(s) : 2 channelsChannel positions : Front: L RSampling rate : 48.0 kHzFrame rate : 46.875 FPS (1024 SPF)Compression mode : LossyStream size : 60.3 MiB (9%)Title : Russian / DubEncoded date : UTC 2018-07-22 18:24:05Tagged date : UTC 2018-07-23 06:27:55

Audio #2ID : 3Format : AACFormat/Info : Advanced Audio CodecFormat profile : LCCodec ID : mp4a-40-2Duration : 1 h 5 minBit rate mode : VariableBit rate : 128 kb/sMaximum bit rate : 138 kb/sChannel(s) : 2 channelsChannel positions : Front: L RSampling rate : 48.0 kHzFrame rate : 46.875 FPS (1024 SPF)Compression mode : LossyStream size : 60.3 MiB (9%)Title : Russian / MVOEncoded date : UTC 2018-07-22 18:29:12Tagged date : UTC 2018-07-23 06:27:55

Audio #3ID : 4Format : AACFormat/Info : Advanced Audio CodecFormat profile : LCCodec ID : mp4a-40-2Duration : 1 h 5 minBit rate mode : VariableBit rate : 128 kb/sMaximum bit rate : 137 kb/sChannel(s) : 2 channelsChannel positions : Front: L RSampling rate : 48.0 kHzFrame rate : 46.875 FPS (1024 SPF)Compression mode : LossyStream size : 60.3 MiB (9%)Title : Russian / VO, IvanovEncoded date : UTC 2018-07-22 18:19:51Tagged date : UTC 2018-07-23 06:27:55
</div>
</div>
Земля До Начала Времен 2: Приключения В Великой Долине / The Land Before Time II: The Great Valley Adventure

Год выпуска: 1994
Страна: США
Жанр: приключения, семейный, мультфильм
Продолжительность: 01:13:00
Перевод: русский Профессиональный (полное дублирование)
Субтитры: нет
Режиссер: Рой Аллен Смит / Roy Allen Smith
Роли озвучивали: Скотт МакЭфи, Кендес Хатсон, Хезер Хоган, Джефф Беннетт, Роб Полсен, Линда Гэри, Кеннет Марс, Джон Ингл, Тресс МакНилл и другие .
Описание: Действие второй части происходит в знакомой Вам миролюбивой Великой Долине, где резвятся малыши — динозаврики под присмотром своих родителей. Но однажды непоседливые ребята ускользнули из-под бдительного ока своих родных и оказались именно там, где неопытных детишек подстерегают неожиданности и опасности.
[i]Релиз группы

Качество: DVDRip / рип с DVD5 (Custom)
Формат: MP4
Видео кодек: H.264
Аудио кодек: AAC
Видео: 478x360 AR:1.33 800 kbps 25 fps
Аудио: [Russian] 2ch 48 kHz 128 kbps - [Dub] Профессиональный (полное дублирование)
<div class="sp-wrap">
<div class="sp-head folded">Logx264</div>
<div class="sp-body">avs [info]: 478x360p 1:1 @ 25/1 fps (cfr)
x264 [info]: using SAR=1/1
x264 [info]: using cpu capabilities: MMX2 SSE2Fast SSSE3 SSE4.2 AVX FMA3 BMI2 AVX2
x264 [info]: profile High, level 4.1
x264 [info]: frame I:902 Avg QP:15.95 size: 31057
x264 [info]: frame P:28071 Avg QP:19.15 size: 8121
x264 [info]: frame B:80527 Avg QP:21.31 size: 2261
x264 [info]: consecutive B-frames: 2.1% 5.2% 12.0% 45.1% 18.5% 13.5% 2.0% 1.0% 0.5%
x264 [info]: mb I I16..4: 0.9% 68.6% 30.5%
x264 [info]: mb P I16..4: 0.2% 3.3% 1.9% P16..4: 42.6% 22.0% 21.1% 1.4% 0.5% skip: 6.9%
x264 [info]: mb B I16..4: 0.0% 0.2% 0.2% B16..8: 32.3% 8.5% 3.4% direct: 5.1% skip:50.2% L0:40.5% L1:48.7% BI:10.8%
x264 [info]: 8x8 transform intra:62.0% inter:48.1%
x264 [info]: direct mvs spatial:97.6% temporal:2.4%
x264 [info]: coded y,uvDC,uvAC intra: 90.7% 90.4% 76.0% inter: 22.2% 18.7% 9.1%
x264 [info]: i16 v,h,dc,p: 21% 22% 16% 41%
x264 [info]: i8 v,h,dc,ddl,ddr,vr,hd,vl,hu: 12% 13% 8% 9% 11% 9% 12% 10% 16%
x264 [info]: i4 v,h,dc,ddl,ddr,vr,hd,vl,hu: 10% 9% 3% 10% 15% 12% 14% 11% 15%
x264 [info]: i8c dc,h,v,p: 42% 28% 17% 14%
x264 [info]: Weighted P-Frames: Y:10.1% UV:3.8%
x264 [info]: ref P L0: 49.2% 10.5% 16.1% 5.5% 4.8% 3.8% 3.6% 2.1% 2.1% 2.1% 0.2% 0.0%
x264 [info]: ref B L0: 74.0% 11.7% 5.2% 2.6% 1.8% 1.7% 1.5% 0.9% 0.5%
x264 [info]: ref B L1: 95.5% 4.5%
x264 [info]: kb/s:800.07

encoded 109500 frames, 46.51 fps, 800.07 kb/s
GeneralComplete name : K:\Torrents\The Land Before Time Collection.1988-2007.DVDRip.x264.640x\The Land Before Time II The Great Valley Adventure.1994.DVDRip.x264.640x.rip by Frost O.S.mp4Format : MPEG-4Format profile : 3GPP Media Release 6 BasicCodec ID : 3gp6 (isom/3gp6/avc1/mp42)File size : 487 MiBDuration : 1 h 13 minOverall bit rate mode : VariableOverall bit rate : 932 kb/sEncoded date : UTC 2018-07-23 06:29:02Tagged date : UTC 2018-07-23 06:29:02

VideoID : 1Format : AVCFormat/Info : Advanced Video CodecFormat profile : High@L4.1Format settings : CABAC / 10 Ref FramesFormat settings, CABAC : YesFormat settings, RefFrames : 10 framesCodec ID : avc1Codec ID/Info : Advanced Video CodingDuration : 1 h 13 minBit rate : 800 kb/sMaximum bit rate : 2 253 kb/sWidth : 478 pixelsHeight : 360 pixelsDisplay aspect ratio : 4:3Frame rate mode : ConstantFrame rate : 25.000 FPSColor space : YUVChroma subsampling : 4:2:0Bit depth : 8 bitsScan type : ProgressiveBits/(Pixel*Frame) : 0.186Stream size : 418 MiB (86%)Writing library : x264 core 152 r2851 ba24899Encoding settings : cabac=1 / ref=10 / deblock=1:-1:-1 / analyse=0x3:0x133 / me=umh / subme=10 / psy=1 / psy_rd=0.90:0.00 / mixed_ref=1 / me_range=48 / chroma_me=1 / trellis=2 / 8x8dct=1 / cqm=0 / deadzone=21,11 / fast_pskip=0 / chroma_qp_offset=-2 / threads=6 / lookahead_threads=1 / sliced_threads=0 / nr=0 / decimate=0 / interlaced=0 / bluray_compat=0 / constrained_intra=0 / bframes=8 / b_pyramid=2 / b_adapt=2 / b_bias=0 / direct=3 / weightb=1 / open_gop=0 / weightp=2 / keyint=250 / keyint_min=25 / scenecut=40 / intra_refresh=0 / rc=2pass / mbtree=0 / bitrate=800 / ratetol=1.0 / qcomp=0.65 / qpmin=0 / qpmax=69 / qpstep=4 / cplxblur=20.0 / qblur=0.5 / ip_ratio=1.40 / pb_ratio=1.30 / aq=1:0.80Encoded date : UTC 2018-07-22 07:37:24Tagged date : UTC 2018-07-23 06:29:06Color range : LimitedColor primaries : BT.601 PALTransfer characteristics : BT.470 System B/GMatrix coefficients : BT.470 System B/G

AudioID : 2Format : AACFormat/Info : Advanced Audio CodecFormat profile : LCCodec ID : mp4a-40-2Duration : 1 h 13 minBit rate mode : VariableBit rate : 128 kb/sMaximum bit rate : 132 kb/sChannel(s) : 2 channelsChannel positions : Front: L RSampling rate : 48.0 kHzFrame rate : 46.875 FPS (1024 SPF)Compression mode : LossyStream size : 66.8 MiB (14%)Title : Russian / DubEncoded date : UTC 2018-07-22 18:32:01Tagged date : UTC 2018-07-23 06:29:06
</div>
</div>
Земля До Начала Времен 3: В Поисках Воды / The Land Before Time III: The Time of the Great Giving

Год выпуска: 1995
Страна: США
Жанр: приключения, семейный, мультфильм
Продолжительность: 01:10:40
Перевод: русский Профессиональный (полное дублирование)
Субтитры: нет
Режиссер: Рой Аллен Смит / Roy Allen Smith
Роли озвучивали: Скотт МакЭфи, Кендес Хатсон, Хезер Хоган, Джефф Беннетт, Роб Полсен, Джон Ингл, Линда Гэри, Уайтби Хертфорд, Николас Гест, Тресс МакНилл и другие .
Описание: Случилось так, что однажды на Великую Долину упал большой метеорит, который отрезал местных жителей от запасов воды. Среди некогда миролюбивых динозавров начинает расти напряжение.
[i]Релиз группы

Качество: DVDRip / рип с DVD5 (Custom)
Формат: MP4
Видео кодек: H.264
Аудио кодек: AAC
Видео: 476x360 AR:1.32 900 kbps 25 fps
Аудио: [Russian] 2ch 48 kHz 128 kbps - [Dub] Профессиональный (полное дублирование)
<div class="sp-wrap">
<div class="sp-head folded">Logx264</div>
<div class="sp-body">avs [info]: 476x360p 1:1 @ 25/1 fps (cfr)
x264 [info]: using SAR=1/1
x264 [info]: using cpu capabilities: MMX2 SSE2Fast SSSE3 SSE4.2 AVX FMA3 BMI2 AVX2
x264 [info]: profile High, level 4.1
x264 [info]: frame I:884 Avg QP:16.55 size: 29133
x264 [info]: frame P:26558 Avg QP:19.30 size: 8964
x264 [info]: frame B:78574 Avg QP:21.59 size: 2714
x264 [info]: consecutive B-frames: 2.1% 4.8% 10.8% 41.4% 23.3% 12.4% 2.8% 1.2% 1.2%
x264 [info]: mb I I16..4: 0.9% 75.0% 24.1%
x264 [info]: mb P I16..4: 0.4% 5.7% 1.9% P16..4: 42.4% 23.3% 20.9% 0.9% 0.3% skip: 4.2%
x264 [info]: mb B I16..4: 0.0% 0.4% 0.2% B16..8: 33.2% 10.9% 4.0% direct: 7.8% skip:43.5% L0:40.2% L1:46.1% BI:13.6%
x264 [info]: 8x8 transform intra:70.5% inter:54.4%
x264 [info]: direct mvs spatial:97.1% temporal:2.9%
x264 [info]: coded y,uvDC,uvAC intra: 90.2% 92.0% 79.1% inter: 26.9% 30.1% 14.7%
x264 [info]: i16 v,h,dc,p: 52% 16% 12% 21%
x264 [info]: i8 v,h,dc,ddl,ddr,vr,hd,vl,hu: 12% 12% 9% 9% 11% 10% 12% 11% 15%
x264 [info]: i4 v,h,dc,ddl,ddr,vr,hd,vl,hu: 11% 9% 3% 9% 15% 13% 15% 11% 15%
x264 [info]: i8c dc,h,v,p: 42% 26% 18% 15%
x264 [info]: Weighted P-Frames: Y:13.0% UV:5.9%
x264 [info]: ref P L0: 46.9% 11.8% 17.2% 5.7% 5.3% 3.8% 4.0% 2.3% 2.6% 0.3% 0.0%
x264 [info]: ref B L0: 75.0% 12.0% 5.0% 2.5% 1.9% 1.8% 1.3% 0.7%
x264 [info]: ref B L1: 96.0% 4.0%
x264 [info]: kb/s:899.95

x264 [total]: encoded 106016 frames, 47.93 fps, 899.95 kb/s
GeneralComplete name : K:\Torrents\The Land Before Time Collection.1988-2007.DVDRip.x264.640x\The Land Before Time III The Time of the Great Giving.1995.DVDRip.x264.640x.rip by Frost O.S.mp4Format : MPEG-4Format profile : 3GPP Media Release 6 BasicCodec ID : 3gp6 (isom/3gp6/avc1/mp42)File size : 522 MiBDuration : 1 h 10 minOverall bit rate mode : VariableOverall bit rate : 1 032 kb/sEncoded date : UTC 2018-07-23 06:30:02Tagged date : UTC 2018-07-23 06:30:02

VideoID : 1Format : AVCFormat/Info : Advanced Video CodecFormat profile : High@L4.1Format settings : CABAC / 9 Ref FramesFormat settings, CABAC : YesFormat settings, RefFrames : 9 framesCodec ID : avc1Codec ID/Info : Advanced Video CodingDuration : 1 h 10 minBit rate : 900 kb/sMaximum bit rate : 2 647 kb/sWidth : 476 pixelsHeight : 360 pixelsDisplay aspect ratio : 4:3Frame rate mode : ConstantFrame rate : 25.000 FPSColor space : YUVChroma subsampling : 4:2:0Bit depth : 8 bitsScan type : ProgressiveBits/(Pixel*Frame) : 0.210Stream size : 455 MiB (87%)Writing library : x264 core 152 r2851 ba24899Encoding settings : cabac=1 / ref=9 / deblock=1:-1:-1 / analyse=0x3:0x133 / me=umh / subme=10 / psy=1 / psy_rd=0.95:0.00 / mixed_ref=1 / me_range=48 / chroma_me=1 / trellis=2 / 8x8dct=1 / cqm=0 / deadzone=21,11 / fast_pskip=0 / chroma_qp_offset=-2 / threads=6 / lookahead_threads=1 / sliced_threads=0 / nr=0 / decimate=0 / interlaced=0 / bluray_compat=0 / constrained_intra=0 / bframes=8 / b_pyramid=2 / b_adapt=2 / b_bias=0 / direct=3 / weightb=1 / open_gop=0 / weightp=2 / keyint=250 / keyint_min=25 / scenecut=40 / intra_refresh=0 / rc=2pass / mbtree=0 / bitrate=900 / ratetol=1.0 / qcomp=0.65 / qpmin=0 / qpmax=69 / qpstep=4 / cplxblur=20.0 / qblur=0.5 / ip_ratio=1.40 / pb_ratio=1.30 / aq=1:0.90Encoded date : UTC 2018-07-22 08:37:20Tagged date : UTC 2018-07-23 06:30:06Color range : LimitedColor primaries : BT.601 PALTransfer characteristics : BT.470 System B/GMatrix coefficients : BT.470 System B/G

AudioID : 2Format : AACFormat/Info : Advanced Audio CodecFormat profile : LCCodec ID : mp4a-40-2Duration : 1 h 10 minBit rate mode : VariableBit rate : 128 kb/sMaximum bit rate : 132 kb/sChannel(s) : 2 channelsChannel positions : Front: L RSampling rate : 48.0 kHzFrame rate : 46.875 FPS (1024 SPF)Compression mode : LossyStream size : 64.7 MiB (12%)Title : Russian / DubEncoded date : UTC 2018-07-22 18:36:43Tagged date : UTC 2018-07-23 06:30:06
</div>
</div>
Земля До Начала Времен 4: Путешествие В Землю Туманов / The Land Before Time IV: Journey Through the Mists

Год выпуска: 1996
Страна: США
Жанр: приключения, семейный, мультфильм
Продолжительность: 01:10:48
Перевод: русский Профессиональный (полное дублирование)
Субтитры: нет
Режиссер: Рой Аллен Смит / Roy Allen Smith
Роли озвучивали: Джон Ингл, Кендес Хатсон, Хезер Хоган, Роб Полсен, Джефф Беннетт, Скотт МакЭфи, Кеннет Марс, Линда Гэри, Кэрол Брюс, Джулиана Хансен и другие .
Описание: Обитателей Великой Долины ждут новости! Бродячая стая Длинношеих поведала о том, что погода за пределами долины испортилась: далекая область, что некогда именовалась Сухой Землей, теперь превратилась в Землю Туманов. Там стали появляться странные, неизвестные существа; и поговаривают, что посещение дождливых мест стало делом небезопасным.
[i]Релиз группы

Качество: DVDRip / рип с DVD5 (Custom)
Формат: MP4
Видео кодек: H.264
Аудио кодек: AAC
Видео: 470x360 AR:1.31 700 kbps 25 fps
Аудио: [Russian] 2ch 48 kHz 128 kbps - [Dub] Профессиональный (полное дублирование)
<div class="sp-wrap">
<div class="sp-head folded">Logx264</div>
<div class="sp-body">avs [info]: 470x360p 1:1 @ 25/1 fps (cfr)
x264 [info]: using SAR=1/1
x264 [info]: using cpu capabilities: MMX2 SSE2Fast SSSE3 SSE4.2 AVX FMA3 BMI2 AVX2
x264 [info]: profile High, level 4.1
x264 [info]: frame I:870 Avg QP:16.07 size: 26071
x264 [info]: frame P:28522 Avg QP:19.20 size: 7173
x264 [info]: frame B:76819 Avg QP:21.21 size: 1880
x264 [info]: consecutive B-frames: 2.7% 5.0% 15.8% 47.6% 17.8% 7.9% 1.5% 1.0% 0.7%
x264 [info]: mb I I16..4: 1.4% 74.7% 23.8%
x264 [info]: mb P I16..4: 0.4% 4.1% 1.7% P16..4: 44.2% 20.7% 19.9% 1.0% 0.3% skip: 7.7%
x264 [info]: mb B I16..4: 0.1% 0.3% 0.2% B16..8: 32.4% 9.3% 3.5% direct: 4.1% skip:50.1% L0:40.9% L1:49.0% BI:10.0%
x264 [info]: 8x8 transform intra:67.4% inter:50.6%
x264 [info]: direct mvs spatial:96.8% temporal:3.2%
x264 [info]: coded y,uvDC,uvAC intra: 86.1% 87.9% 73.9% inter: 20.1% 20.8% 11.0%
x264 [info]: i16 v,h,dc,p: 35% 29% 13% 23%
x264 [info]: i8 v,h,dc,ddl,ddr,vr,hd,vl,hu: 11% 19% 9% 8% 9% 8% 11% 9% 15%
x264 [info]: i4 v,h,dc,ddl,ddr,vr,hd,vl,hu: 10% 13% 4% 10% 14% 12% 14% 10% 15%
x264 [info]: i8c dc,h,v,p: 42% 29% 15% 13%
x264 [info]: Weighted P-Frames: Y:11.2% UV:4.9%
x264 [info]: ref P L0: 52.3% 11.1% 15.9% 5.4% 4.8% 3.9% 3.8% 2.5% 0.3% 0.0%
x264 [info]: ref B L0: 78.1% 10.0% 4.8% 2.7% 2.1% 1.5% 0.9%
x264 [info]: ref B L1: 96.1% 3.9%
x264 [info]: kb/s:699.95

x264 [total]: encoded 106211 frames, 56.31 fps, 699.95 kb/s
GeneralComplete name : K:\Torrents\The Land Before Time Collection.1988-2007.DVDRip.x264.640x\The Land Before Time IV Journey Through the Mists.1996.DVDRip.x264.640x.rip by Frost O.S.mp4Format : MPEG-4Format profile : 3GPP Media Release 6 BasicCodec ID : 3gp6 (isom/3gp6/avc1/mp42)File size : 421 MiBDuration : 1 h 10 minOverall bit rate mode : VariableOverall bit rate : 832 kb/sEncoded date : UTC 2018-07-23 06:31:01Tagged date : UTC 2018-07-23 06:31:01

VideoID : 1Format : AVCFormat/Info : Advanced Video CodecFormat profile : High@L4.1Format settings : CABAC / 8 Ref FramesFormat settings, CABAC : YesFormat settings, RefFrames : 8 framesCodec ID : avc1Codec ID/Info : Advanced Video CodingDuration : 1 h 10 minBit rate : 700 kb/sMaximum bit rate : 2 220 kb/sWidth : 470 pixelsHeight : 360 pixelsDisplay aspect ratio : 4:3Frame rate mode : ConstantFrame rate : 25.000 FPSColor space : YUVChroma subsampling : 4:2:0Bit depth : 8 bitsScan type : ProgressiveBits/(Pixel*Frame) : 0.165Stream size : 354 MiB (84%)Writing library : x264 core 152 r2851 ba24899Encoding settings : cabac=1 / ref=8 / deblock=1:-1:-1 / analyse=0x3:0x133 / me=umh / subme=10 / psy=1 / psy_rd=1.00:0.00 / mixed_ref=1 / me_range=48 / chroma_me=1 / trellis=2 / 8x8dct=1 / cqm=0 / deadzone=21,11 / fast_pskip=0 / chroma_qp_offset=-2 / threads=6 / lookahead_threads=1 / sliced_threads=0 / nr=0 / decimate=0 / interlaced=0 / bluray_compat=0 / constrained_intra=0 / bframes=8 / b_pyramid=2 / b_adapt=2 / b_bias=0 / direct=3 / weightb=1 / open_gop=0 / weightp=2 / keyint=250 / keyint_min=25 / scenecut=40 / intra_refresh=0 / rc=2pass / mbtree=0 / bitrate=700 / ratetol=1.0 / qcomp=0.65 / qpmin=0 / qpmax=69 / qpstep=4 / cplxblur=20.0 / qblur=0.5 / ip_ratio=1.40 / pb_ratio=1.30 / aq=1:0.90Encoded date : UTC 2018-07-22 09:34:19Tagged date : UTC 2018-07-23 06:31:04Color range : LimitedColor primaries : BT.601 PALTransfer characteristics : BT.470 System B/GMatrix coefficients : BT.470 System B/G

AudioID : 2Format : AACFormat/Info : Advanced Audio CodecFormat profile : LCCodec ID : mp4a-40-2Duration : 1 h 10 minBit rate mode : VariableBit rate : 128 kb/sMaximum bit rate : 132 kb/sChannel(s) : 2 channelsChannel positions : Front: L RSampling rate : 48.0 kHzFrame rate : 46.875 FPS (1024 SPF)Compression mode : LossyStream size : 64.8 MiB (15%)Title : Russian / DubEncoded date : UTC 2018-07-22 18:41:31Tagged date : UTC 2018-07-23 06:31:04
</div>
</div>
Земля До Начала Времен 5: Таинственный Остров / The Land Before Time V: The Mysterious Island

Год выпуска: 1997
Страна: США
Жанр: приключения, семейный, мультфильм
Продолжительность: 01:10:23
Перевод: русский Профессиональный (полное дублирование)
Субтитры: нет
Режиссер: Чарльз Гросвенор / Charles Grosvenor
Роли озвучивали: Джон Ингл, Брэндон Лакруа, Ария Ноэль Курзон, Роб Полсен, Энди МакЭфи, Джефф Беннетт, Кеннет Марс, Мириам Флинн, Тресс МакНилл, Кэннон Янг и другие .
Описание: Великая Долина всегда была тем единственным местом, где динозавры всех мастей жили в мире и взаимном согласии. Еды повсюду было предостаточно, и по сему обитатели Великой Долины прибывали в сытости, спокойствии и миролюбии.

Пока взрослые динозавры препирались, как им быть дальше и где искать еду, Крошки-Ножки и его веселая компания отправились в путешествие. Путь маленьких героев лежал через Большую Воду к берегам Таинственного Острова!
[i]Релиз группы

Качество: DVDRip / рип с DVD5 (Custom)
Формат: MP4
Видео кодек: H.264
Аудио кодек: AAC
Видео: 482x360 AR:1.34 1000 kbps 25 fps
Аудио: [Russian] 2ch 48 kHz 128 kbps - [Dub] Профессиональный (полное дублирование)
<div class="sp-wrap">
<div class="sp-head folded">Logx264</div>
<div class="sp-body">avs [info]: 482x360p 1:1 @ 25/1 fps (cfr)
x264 [info]: using SAR=1/1
x264 [info]: using cpu capabilities: MMX2 SSE2Fast SSSE3 SSE4.2 AVX FMA3 BMI2 AVX2
x264 [info]: profile High, level 4.1
x264 [info]: frame I:880 Avg QP:14.86 size: 36730
x264 [info]: frame P:28972 Avg QP:17.83 size: 10164
x264 [info]: frame B:75739 Avg QP:19.89 size: 2658
x264 [info]: consecutive B-frames: 3.3% 5.2% 12.8% 54.4% 17.0% 5.0% 1.2% 0.7% 0.4%
x264 [info]: mb I I16..4: 2.2% 66.5% 31.2%
x264 [info]: mb P I16..4: 0.5% 5.4% 2.4% P16..4: 38.1% 22.1% 20.5% 1.7% 0.6% skip: 8.6%
x264 [info]: mb B I16..4: 0.1% 0.3% 0.3% B16..8: 30.9% 9.6% 4.2% direct: 4.8% skip:49.9% L0:38.9% L1:49.2% BI:11.9%
x264 [info]: 8x8 transform intra:64.1% inter:45.7%
x264 [info]: direct mvs spatial:97.3% temporal:2.7%
x264 [info]: coded y,uvDC,uvAC intra: 86.3% 91.6% 80.1% inter: 23.6% 26.0% 14.9%
x264 [info]: i16 v,h,dc,p: 33% 23% 12% 32%
x264 [info]: i8 v,h,dc,ddl,ddr,vr,hd,vl,hu: 12% 17% 11% 8% 10% 8% 11% 9% 14%
x264 [info]: i4 v,h,dc,ddl,ddr,vr,hd,vl,hu: 11% 16% 4% 9% 13% 11% 12% 10% 13%
x264 [info]: i8c dc,h,v,p: 40% 31% 16% 13%
x264 [info]: Weighted P-Frames: Y:12.2% UV:5.1%
x264 [info]: ref P L0: 52.8% 11.1% 14.5% 5.1% 4.2% 3.3% 3.1% 1.9% 1.9% 1.8% 0.3% 0.0%
x264 [info]: ref B L0: 78.8% 9.4% 3.9% 2.4% 1.6% 1.3% 1.2% 0.8% 0.5%
x264 [info]: ref B L1: 97.1% 2.9%
x264 [info]: kb/s:1000.25

x264 [total]: encoded 105591 frames, 43.16 fps, 1000.25 kb/s
GeneralComplete name : K:\Torrents\The Land Before Time Collection.1988-2007.DVDRip.x264.640x\The Land Before Time V The Mysterious Island.1997.DVDRip.x264.640x.rip by Frost O.S.mp4Format : MPEG-4Format profile : 3GPP Media Release 6 BasicCodec ID : 3gp6 (isom/3gp6/avc1/mp42)File size : 570 MiBDuration : 1 h 10 minOverall bit rate mode : VariableOverall bit rate : 1 132 kb/sEncoded date : UTC 2018-07-23 06:32:05Tagged date : UTC 2018-07-23 06:32:05

VideoID : 1Format : AVCFormat/Info : Advanced Video CodecFormat profile : High@L4.1Format settings : CABAC / 10 Ref FramesFormat settings, CABAC : YesFormat settings, RefFrames : 10 framesCodec ID : avc1Codec ID/Info : Advanced Video CodingDuration : 1 h 10 minBit rate : 1 000 kb/sMaximum bit rate : 7 033 kb/sWidth : 482 pixelsHeight : 360 pixelsDisplay aspect ratio : 4:3Frame rate mode : ConstantFrame rate : 25.000 FPSColor space : YUVChroma subsampling : 4:2:0Bit depth : 8 bitsScan type : ProgressiveBits/(Pixel*Frame) : 0.231Stream size : 504 MiB (88%)Writing library : x264 core 152 r2851 ba24899Encoding settings : cabac=1 / ref=10 / deblock=1:-1:-1 / analyse=0x3:0x133 / me=umh / subme=10 / psy=1 / psy_rd=0.95:0.00 / mixed_ref=1 / me_range=48 / chroma_me=1 / trellis=2 / 8x8dct=1 / cqm=0 / deadzone=21,11 / fast_pskip=0 / chroma_qp_offset=-2 / threads=6 / lookahead_threads=1 / sliced_threads=0 / nr=0 / decimate=0 / interlaced=0 / bluray_compat=0 / constrained_intra=0 / bframes=8 / b_pyramid=2 / b_adapt=2 / b_bias=0 / direct=3 / weightb=1 / open_gop=0 / weightp=2 / keyint=250 / keyint_min=25 / scenecut=40 / intra_refresh=0 / rc=2pass / mbtree=0 / bitrate=1000 / ratetol=1.0 / qcomp=0.65 / qpmin=0 / qpmax=69 / qpstep=4 / cplxblur=20.0 / qblur=0.5 / ip_ratio=1.40 / pb_ratio=1.30 / aq=1:0.80Encoded date : UTC 2018-07-22 11:37:55Tagged date : UTC 2018-07-23 06:32:09Color range : LimitedColor primaries : BT.601 PALTransfer characteristics : BT.470 System B/GMatrix coefficients : BT.470 System B/G

AudioID : 2Format : AACFormat/Info : Advanced Audio CodecFormat profile : LCCodec ID : mp4a-40-2Duration : 1 h 10 minBit rate mode : VariableBit rate : 128 kb/sMaximum bit rate : 135 kb/sChannel(s) : 2 channelsChannel positions : Front: L RSampling rate : 48.0 kHzFrame rate : 46.875 FPS (1024 SPF)Compression mode : LossyStream size : 64.4 MiB (11%)Title : Russian / DubEncoded date : UTC 2018-07-22 18:49:07Tagged date : UTC 2018-07-23 06:32:09
</div>
</div>

Трекер:  [ 23-Июл-2018 10:36 ]

  

Скачать .torrent

Размер .torrent файла 32 KB


Размер: 6.13 GB
Хэш (hash) релиза: 5b3cb64159c1ababd66456e47f51d25ad349153d

Еще никто не оставлял запись к записи скачать торрент [MULT] Земля до начала времен: Коллекция The Land Before Time: Collection . Будь первым!

!Обратная связь