Скачать через торрент История одного преступления Фильм бесплатно в хорошем качестве torrent

Скачивайте на UnionPeer.org фильмы через торрент без регистрации. Новинки кино в хорошем качестве через торрент. На UnionPeer.org можно скачать через торрент фильмы 2014 и 2015 годов. Самые новые фильмы.

Скачать торрент История одного преступления бесплатно через .torrent фильм мультфильм сериал

Статистика раздачи
Размер:  627 MB   |    Зарегистрирован:  2 месяца 30 дней   |    .torrent скачан:  31 раз   |   
Раздают:  1  
   
загрузка...
 
Автор Сообщение

Galfimbul

avatar Galfimbul


История одного преступления
Страна: СССР
Студия: Союзмультфильм
Жанр: мультфильм, детский
Год выпуска: 1962
Продолжительность: 00:19:08
Режиссер: Фёдор Хитрук
Описание: Мультипликационный фильм о том, как шум, создаваемый неделикатными соседями по дому, доводит добрейшего Василия Васильевича Мамина до покушения на убийство.
Доп. информация: Ремукс выполнен с итальянского DVD издания "I Maestri Dell'Animazione Russa".
Релиз:
Семпл: http://sendfile.su/1432321
Тип релиза: DVDRemux
Контейнер: MPG

Видео: 720x576 (4:3) @ 768x576, 25.000 fps, MPEG-2 Video, ~4299 Kbps, 0.415 bits/pixel
Аудио: Русский, 48.0 KHz, AC3, 2 ch, 192 Kbps
GeneralComplete name : История одного преступления 1962 Союзмультфильм.mpgFormat : MPEG-PSFile size : 627 MiBDuration : 19 min 8 sOverall bit rate mode : VariableOverall bit rate : 4 582 kb/s

VideoID : 224 (0xE0)Format : MPEG VideoFormat version : Version 2Format profile : Main@MainFormat settings : CustomMatrix / BVOPFormat settings, BVOP : YesFormat settings, Matrix : CustomFormat settings, GOP : M=3, N=12Duration : 19 min 8 sBit rate mode : VariableBit rate : 4 299 kb/sMaximum bit rate : 9 800 kb/sWidth : 720 pixelsHeight : 576 pixelsDisplay aspect ratio : 4:3Frame rate : 25.000 FPSStandard : PALColor space : YUVChroma subsampling : 4:2:0Bit depth : 8 bitsScan type : ProgressiveCompression mode : LossyBits/(Pixel*Frame) : 0.415Time code of first frame : 00:00:00:00Time code source : Group of pictures headerGOP, Open/Closed : ClosedStream size : 588 MiB (94%)

AudioID : 189 (0xBD)-128 (0x80)Format : AC-3Format/Info : Audio Coding 3Muxing mode : DVD-VideoDuration : 19 min 8 sBit rate mode : ConstantBit rate : 192 kb/sChannel(s) : 2 channelsChannel positions : Front: L RSampling rate : 48.0 kHzFrame rate : 31.250 FPS (1536 SPF)Bit depth : 16 bitsCompression mode : LossyStream size : 26.3 MiB (4%)Service kind : Complete Main


Трекер:  [ 23-Июл-2018 22:01 ]

  

Скачать .torrent

Размер .torrent файла 12 KB


Размер: 627 MB
Хэш (hash) релиза: 5140d66d3707ac801928e47293191641869cda5c
Подписка на обновления:

Торренты, похожие на История одного преступления скачать торрент

Форум Название Автор Размер S L Добавлен
Мультфильмы до 2016 ·%· История одного преступления (Ф. Хитрук, В. Брумберг, З. Брумберг, Г. Бардин, И. Давыдов, В. Тарасов, В. Котеночкин) [1961-1993, СССР, мультфильмы для взрослых, DVD5] Galfimbul 41900380163.9 GB 0 0 1531467050

10:30

13-Июл-18

Еще никто не оставлял запись к записи скачать торрент История одного преступления . Будь первым!

!Обратная связь