Скачать через торрент Планета Уит Planet With бесплатно Аниме Все серии на русском torrent

Статистика раздачи
Размер:  1.14 GB   |    Зарегистрирован:  4 месяца 20 дней   |    .torrent скачан:  57 раз   |   
Раздают:  1  
   
загрузка...
 
Автор Сообщение

Galfimbul

avatar Galfimbul



Планета Уит / Planet With
Страна: Япония
Год выпуска: 2018
Жанр: приключения, меха, фантастика
Тип: TV
Продолжительность: 12 эп., ~25 мин. эпизод
Режиссер: Судзуки Ёхэй
Студия: J.C. Staff
Описание:Отважным подросткам снова предстоит спасать мир от опасности. Соя Курой – школьник, страдающий амнезией. Он только перешел в новую школу и еще не успел завести друзей. Однако его берет под свое крыло староста класса Нозоми Такамагахара, которая хочет помочь новому ученику влиться в коллектив. Девушка носит очки, любит истории о призраках и мистику. Вместе с Соя живет Гинко Курой, которая одевается в лоли-стиле и отвечает за готовку в доме. Вместе с ними обитает таинственный Сенсей, выглядящий как весьма необычный кот. Соя помимо своей воли был вовлечен в инцидент с нападением на город загадочного «Орудия Небула», и теперь команда спецотдела безопасности «Великий Паладин» считает школьника и его друзей причастными к темным силам.
© Risens Team
World-Art | AniDB
Качество: WEBRip
Тип релиза: Без хардсаба
Формат видео: MKV
Наличие линковки: Нет
Релиз: [Erai-raws]
Видео: 1280x720, x264, 2 142 kb/s, 23.976 fps, 8 бит
Аудио: AAC, 128 kb/s, 2 ch, 48.0 kHz; язык японский
Субтитры: внешние, язык субтитров русский; Перевод: [Crunchyroll]
Format : MatroskaFormat version : Version 4 / Version 2File size : 386 MiBDuration : 23 min 45 sOverall bit rate : 2 273 kb/sEncoded date : UTC 2018-07-23 21:06:00Writing application : mkvmerge v25.0.0 ('Prog Noir') 64-bitWriting library : libebml v1.3.6 + libmatroska v1.4.9Attachments : MagistralC-Bold.otf

VideoID : 1Format : AVCFormat/Info : Advanced Video CodecFormat profile : High@L4Format settings : CABAC / 6 Ref FramesFormat settings, CABAC : YesFormat settings, ReFrames : 6 framesCodec ID : V_MPEG4/ISO/AVCDuration : 23 min 45 sBit rate : 2 142 kb/sWidth : 1 280 pixelsHeight : 720 pixelsDisplay aspect ratio : 16:9Frame rate mode : ConstantFrame rate : 23.976 (24000/1001) FPSColor space : YUVChroma subsampling : 4:2:0Bit depth : 8 bitsScan type : ProgressiveBits/(Pixel*Frame) : 0.097Stream size : 364 MiB (94%)Writing library : x264 core 142Encoding settings : cabac=1 / ref=6 / deblock=1:1:1 / analyse=0x3:0x113 / me=umh / subme=8 / psy=1 / psy_rd=0.40:0.00 / mixed_ref=1 / me_range=16 / chroma_me=1 / trellis=1 / 8x8dct=1 / cqm=0 / deadzone=21,11 / fast_pskip=1 / chroma_qp_offset=-2 / threads=10 / lookahead_threads=1 / sliced_threads=0 / nr=0 / decimate=1 / interlaced=0 / bluray_compat=0 / constrained_intra=0 / bframes=3 / b_pyramid=2 / b_adapt=2 / b_bias=0 / direct=3 / weightb=1 / open_gop=0 / weightp=2 / keyint=48 / keyint_min=24 / scenecut=40 / intra_refresh=0 / rc_lookahead=48 / rc=crf / mbtree=1 / crf=15.0 / qcomp=0.60 / qpmin=0 / qpmax=69 / qpstep=4 / vbv_maxrate=4000 / vbv_bufsize=6000 / crf_max=0.0 / nal_hrd=none / filler=0 / ip_ratio=1.40 / aq=1:0.60Default : YesForced : No

AudioID : 2Format : AACFormat/Info : Advanced Audio CodecFormat profile : LCCodec ID : A_AAC-2Duration : 23 min 44 sBit rate : 128 kb/sChannel(s) : 2 channelsChannel positions : Front: L RSampling rate : 48.0 kHzFrame rate : 46.875 FPS (1024 SPF)Compression mode : LossyStream size : 21.8 MiB (6%)Language : JapaneseDefault : YesForced : No
1. Горите, Семь вспышек
2. Солдаты Небулы
3. Мститель — 1
Эфир 4-го эпизода намечен на 29.07.2018

Трекер:  [ 24-Июл-2018 00:30 ]

  

Скачать .torrent

Размер .torrent файла 12 KB


Размер: 1.14 GB
Хэш (hash) релиза: bbf7323b1a28ebadfa20dfc1e5c6d4a3276501e7
Подписка на обновления:

Еще никто не оставлял запись к записи скачать торрент Планета Уит Planet With . Будь первым!

!Обратная связь