Скачать через торрент Любовь похожа на прошедший дождь Koi wa Ameagari no You ni бесплатно Аниме Все серии на русском torrent

Статистика раздачи
Размер:  3.49 GB   |    Зарегистрирован:  4 месяца 18 дней   |    .torrent скачан:  30 раз   |   
Раздают:  1  
   
загрузка...
 
Автор Сообщение

Galfimbul

avatar Galfimbul


Любовь похожа на прошедший дождь / Koi wa Ameagari no You ni / After the Rain
Продолжительность: 12 эп. по 22 мин.
Год выпуска: 2018
Страна: Япония
Тип: TV
Жанр: романтика
Режиссёр: Аюму Ватанабэ
Студия: Wit Studio
Описание: Ученица старшей школы Акира Тачибана — тихая любезная девушка, которая раньше состояла в клубе лёгкой атлетики, но из-за перенесённой травмы потеряла былую форму. Она нашла прибежище в семейном ресторанчике, устроившись туда на подработку. Неожиданно для себя она понимает, что вопреки собственной воле влюбилась в своего начальника Масами Кондо — разведённого мужчину 45 лет, воспитывающего маленького сына.
Несмотря на огромную разницу в возрасте, Акира искренне восхищена добрым характером и мягкими манерами Кондо, которого другие работники воспринимают как бесхарактерную личность.
Мало-помалу они сближаются и начинают понимать друг друга. Хотя Акира не может объяснить, по каким именно причинам её привлек собственный начальник, она убеждена, что для настоящей любви не требуются причины и объяснения. Одним дождливым днём она решает наконец признаться Кондо в своих чувствах... Какова же будет его реакция? И что он ответит на это?
Качество: BDRip
Рип: [Moozzi2]
Тип релиза: без хардсаба, без линковки
Формат видео: MKV
Видео: MPEG4 (AVC), 8 bit, 1920x1080, 23.976fps, 5342 Kbps
Аудио: JAP: FLAC, 48.0 kHz, 2ch, 24 bit, 1393 Kbps
Субтитры: ASS, отдельным файлом: Язык субтитров русский
#1 Перевод:
Редактор: Благодир Юрий, Переводчик: Елена Родионова (laci)
...5506490 BDRip
The Sound of Rain
Rain Drops on Green Leaves
Raining Tears
Gentle Rain
The Scent of Rain
Fine Rain
Heavy Rain
Quiet Rain
Rain of Sorrow
Sudden Shower
Passing Shower
After the Rain
* Чтобы смотреть с озвучкой, необходимо из папки Rus sound переписать файлы в папку, где находятся видеофайлы. Далее, следует запустить плеер и переключиться на mka-дорожку. Подробное описание здесь
* Чтобы смотреть 10-битное видео (10bit), необходимо, исходя из ваших предпочтений используемого проигрывателя, воспользоваться
этой инструкцией.
* Чтобы смотреть с субтитрами, необходимо из папки Rus subs переписать файлы в папку, где находятся видеофайлы. В большинстве плееров, одноимённые субтитры подключатся автоматически.
Общее
Уникальный идентификатор : 254199165110973149841505640141047099982 (0xBF3CFA77EF12FDC1B5E9A95CD6EE724E)
Полное имя : E:\раздачи\[Moozzi2] Koi wa Ameagari no You ni [BDRip 1080p x264 FLAC]\[Moozzi2] Koi wa Ameagari no You ni - 01 [BDRip 1080p x264 FLAC].mkv
Формат : Matroska
Версия формата : Version 4 / Version 2
Размер файла : 1,08 Гбайт
Продолжительность : 22 м. 51 с.
Режим общего битрейта : Переменный
Общий поток : 6737 Кбит/сек
Дата кодирования : UTC 2018-07-08 09:52:52
Программа кодирования : mkvmerge v9.2.0 ('Photograph') 64bit
Библиотека кодирования : libebml v1.3.3 + libmatroska v1.4.4

Видео
Идентификатор : 1
Формат : AVC
Формат/Информация : Advanced Video Codec
Профиль формата : High@L5
Настройки формата : CABAC / 5 Ref Frames
Параметр CABAC формата : Да
Параметр RefFrames формата : 5 кадров
Идентификатор кодека : V_MPEG4/ISO/AVC
Продолжительность : 22 м. 51 с.
Битрейт : 5342 Кбит/сек
Ширина : 1920 пикселей
Высота : 1080 пикселей
Соотношение сторон : 16:9
Режим частоты кадров : Постоянный
Частота кадров : 23,976 (24000/1001) кадра/сек
Цветовое пространство : YUV
Субдискретизация насыщенности : 4:2:0
Битовая глубина : 8 бит
Тип развёртки : Прогрессивная
Бит/(Пиксели*Кадры) : 0.107
Размер потока : 874 Мбайт (79%)
Библиотека кодирования : x264 core 155 r2901 7d0ff22
Настройки программы : cabac=1 / ref=5 / deblock=1:1:1 / analyse=0x3:0x113 / me=umh / subme=9 / psy=1 / psy_rd=1.00:0.00 / mixed_ref=1 / me_range=32 / chroma_me=1 / trellis=1 / 8x8dct=1 / cqm=0 / deadzone=21,11 / fast_pskip=0 / chroma_qp_offset=-2 / threads=24 / lookahead_threads=2 / sliced_threads=0 / nr=0 / decimate=1 / interlaced=0 / bluray_compat=0 / stitchable=1 / constrained_intra=0 / bframes=3 / b_pyramid=2 / b_adapt=2 / b_bias=0 / direct=1 / weightb=1 / open_gop=0 / weightp=1 / keyint=240 / keyint_min=23 / scenecut=40 / intra_refresh=0 / rc_lookahead=40 / rc=crf / mbtree=1 / crf=16.0 / qcomp=0.60 / qpmin=0 / qpmax=69 / qpstep=4 / ip_ratio=1.40 / aq=1:1.00
Язык : Japanese
Default : Да
Forced : Нет

Аудио
Идентификатор : 2
Формат : FLAC
Формат/Информация : Free Lossless Audio Codec
Идентификатор кодека : A_FLAC
Продолжительность : 22 м. 51 с.
Вид битрейта : Переменный
Битрейт : 1393 Кбит/сек
Каналы : 2 канала
Расположение каналов : Front: L R
Частота : 48,0 КГц
Частота кадров : 11,719 кадров/сек (4096 SPF)
Битовая глубина : 24 бит
Размер потока : 228 Мбайт (21%)
Библиотека кодирования : libFLAC 1.3.2 (UTC 2017-01-01)
Язык : Japanese
Default : Да
Forced : Нет
File: E:\раздачи\[Moozzi2] Koi wa Ameagari no You ni [BDRip 1080p x264 FLAC]\[Moozzi2] Koi wa Ameagari no You ni - 01 [BDRip 1080p x264 FLAC].mkv
Duration: 00:22:52 (1371.88)
Track #1: video
lang: jpn (2)
codc: V_MPEG4/ISO/AVC -> H264/AVC (22)
reso: 1920x1080 -> 16:9
fram: 23.976 fps
rate: 5342 kbps (5341.9)
dura: 00:22:52 (1371.83)
size: 873.59 MB (916022357)
Track #2: audio
lang: jpn -> Japanese (2)
codc: A_FLAC -> Other (15)
chan: 2 -> Stereo
samp: 48000 Hz
rate: 1393 kbps (1393.45)
dura: 00:22:52 (1371.82)
size: 227.88 MB (238945707)
Sizes: (check sanity)
disk: 1.08 GB (1155256890)
trac: 1.08 GB (1154968064) [based on track size]
bitr: 1.08 GB (1154969561) [based on bitrate]
tdif: 282.06 KB (288826) 0.02%
bdif: 280.59 KB (287328) 0.02%


Трекер:  [ 24-Июл-2018 15:30 ]

  

Скачать .torrent

Размер .torrent файла 18 KB


Размер: 3.49 GB
Хэш (hash) релиза: 05d67dc6f77c9db78ec70842918afb157fe281df
Подписка на обновления:

Еще никто не оставлял запись к записи скачать торрент Любовь похожа на прошедший дождь Koi wa Ameagari no You ni . Будь первым!

!Обратная связь