Скачать через торрент [VIDEO] Первому игроку приготовиться Ready Player One бесплатно русская версия torrent активатор

Статистика раздачи
Размер:  2.07 GB   |    Зарегистрирован:  4 месяца 19 дней   |    .torrent скачан:  35 раз   |   
Раздают:  1  
   
загрузка...
 
Автор Сообщение

Galfimbul

avatar Galfimbul


Первому игроку приготовиться / Ready Player One


Год выпуска: 2018
Страна: США
Жанр: фантастика, боевик, приключения
Продолжительность: 02:19:58
Перевод №1: русский Профессиональный (полное дублирование) Blu-Ray EUR
Перевод №2: украинский Профессиональный (полное дублирование) студия Postmodern
Оригинальная дорожка: Есть
Субтитры: русские (форсированные), (полные), украинские (форсированные), английские (полные, SDH)
Режиссер: Стивен Спилберг / Steven Spielberg
В ролях: Тай Шеридан, Оливия Кук, Бен Мендельсон, Лина Уэйте, ТиДжей Миллер, Саймон Пегг, Марк Райлэнс, Филип Чжао, Уин Морисаки, Ханна Джон-Кэймен и другие .
Описание: Действие фильма происходит в 2045 году, мир погружается в хаос и находится на грани коллапса. Люди ищут спасения в игре OASIS - огромной вселенной виртуальной реальности. Ее создатель, гениальный и эксцентричный Джеймс Холлидэй, оставляет уникальное завещание. Все его колоссальное состояние получит игрок, первым обнаруживший цифровое «пасхальное яйцо», которое миллиардер спрятал где-то на просторах OASISа. Запущенный им квест охватывает весь мир. Совершенно негероический парень по имени Уэйд Уоттс решает принять участие в состязании, с головой бросаясь в головокружительную, искажающую реальность погоню за сокровищами по фантастической вселенной, полной загадок, открытий и опасностей .
Релиз группы

Качество: BDRip / рип с Blu-ray disc 1080p [EUR]
Формат: MP4
Видео кодек: H.264
Аудио кодек: AAC
Видео: 960x402 AR:2.39 1740 kbps 23.976 fps
Аудио №1: [Russian] 2ch 48 kHz 128 kbps - [Dub] Профессиональный (полное дублирование) Blu-Ray EUR
Аудио №2: [Ukrainian] 2ch 48 kHz 128 kbps - [Dub] Профессиональный (полное дублирование) студия Postmodern
Аудио №3: [English] 2ch 48 kHz 128 kbps - Original
avs [info]: 960x402p 1:1 @ 24000/1001 fps (cfr)
x264 [info]: using SAR=1/1
x264 [info]: using cpu capabilities: MMX2 SSE2Fast SSSE3 SSE4.2 AVX FMA3 BMI2 AVX2
x264 [info]: profile High, level 4.1

x264 [info]: frame I:1247 Avg QP:18.20 size: 48254
x264 [info]: frame P:56330 Avg QP:22.01 size: 16657
x264 [info]: frame B:143780 Avg QP:23.61 size: 5660
x264 [info]: consecutive B-frames: 5.2% 5.5% 16.2% 31.8% 17.0% 19.0% 2.5% 1.1% 1.7%
x264 [info]: mb I I16..4: 8.3% 65.3% 26.3%
x264 [info]: mb P I16..4: 2.1% 12.9% 3.2% P16..4: 32.9% 33.7% 8.6% 0.0% 0.0% skip: 6.7%
x264 [info]: mb B I16..4: 0.3% 1.9% 0.5% B16..8: 34.0% 17.9% 2.7% direct: 4.9% skip:37.8% L0:42.6% L1:43.8% BI:13.6%
x264 [info]: 8x8 transform intra:70.0% inter:64.8%
x264 [info]: direct mvs spatial:95.7% temporal:4.3%
x264 [info]: coded y,uvDC,uvAC intra: 77.6% 78.8% 44.2% inter: 22.8% 20.5% 6.5%
x264 [info]: i16 v,h,dc,p: 9% 12% 2% 76%
x264 [info]: i8 v,h,dc,ddl,ddr,vr,hd,vl,hu: 11% 7% 3% 10% 15% 14% 16% 12% 14%
x264 [info]: i4 v,h,dc,ddl,ddr,vr,hd,vl,hu: 22% 7% 4% 8% 13% 12% 13% 10% 12%
x264 [info]: i8c dc,h,v,p: 31% 28% 20% 20%
x264 [info]: Weighted P-Frames: Y:24.2% UV:16.1%
x264 [info]: ref P L0: 50.5% 13.4% 16.1% 6.4% 4.5% 3.2% 3.2% 2.1% 0.6% 0.1%
x264 [info]: ref B L0: 82.0% 7.9% 4.0% 3.1% 1.6% 0.9% 0.5%
x264 [info]: ref B L1: 96.6% 3.4%
x264 [info]: kb/s:1726.26

encoded 201357 frames, 16.62 fps, 1726.26 kb/s
GeneralComplete name : K:\Torrents\Ready Player One.2018.BDRip.x264.960x.rip by Frost O.S.mp4Format : MPEG-4Format profile : 3GPP Release 6 GeneralCodec ID : 3gg6 (isom/3gg6/mp42)File size : 2.07 GiBDuration : 2 h 19 minOverall bit rate mode : VariableOverall bit rate : 2 118 kb/sEncoded date : UTC 2018-07-24 13:04:04Tagged date : UTC 2018-07-24 13:04:04

VideoID : 1Format : AVCFormat/Info : Advanced Video CodecFormat profile : High@L4.1Format settings : CABAC / 8 Ref FramesFormat settings, CABAC : YesFormat settings, RefFrames : 8 framesCodec ID : avc1Codec ID/Info : Advanced Video CodingDuration : 2 h 19 minBit rate : 1 740 kb/sMaximum bit rate : 10.2 Mb/sWidth : 960 pixelsHeight : 402 pixelsDisplay aspect ratio : 2.40:1Frame rate mode : ConstantFrame rate : 23.976 (24000/1001) FPSColor space : YUVChroma subsampling : 4:2:0Bit depth : 8 bitsScan type : ProgressiveBits/(Pixel*Frame) : 0.188Stream size : 1.69 GiB (82%)Writing library : x264 core 152 r2851 ba24899Encoding settings : cabac=1 / ref=8 / deblock=1:-2:-1 / analyse=0x3:0x113 / me=umh / subme=11 / psy=1 / psy_rd=0.95:0.00 / mixed_ref=1 / me_range=32 / chroma_me=1 / trellis=2 / 8x8dct=1 / cqm=0 / deadzone=21,11 / fast_pskip=0 / chroma_qp_offset=-2 / threads=6 / lookahead_threads=1 / sliced_threads=0 / nr=0 / decimate=0 / interlaced=0 / bluray_compat=0 / constrained_intra=0 / bframes=8 / b_pyramid=2 / b_adapt=2 / b_bias=0 / direct=3 / weightb=1 / open_gop=0 / weightp=2 / keyint=250 / keyint_min=23 / scenecut=40 / intra_refresh=0 / rc=2pass / mbtree=0 / bitrate=1740 / ratetol=1.0 / qcomp=0.70 / qpmin=0 / qpmax=69 / qpstep=4 / cplxblur=20.0 / qblur=0.5 / ip_ratio=1.40 / pb_ratio=1.30 / aq=2:0.70Encoded date : UTC 2018-07-23 20:07:04Tagged date : UTC 2018-07-24 13:04:42Color range : LimitedColor primaries : BT.709Transfer characteristics : BT.709Matrix coefficients : BT.709

Audio #1ID : 2Format : AACFormat/Info : Advanced Audio CodecFormat profile : LCCodec ID : mp4a-40-2Duration : 2 h 19 minBit rate mode : VariableBit rate : 128 kb/sMaximum bit rate : 137 kb/sChannel(s) : 2 channelsChannel positions : Front: L RSampling rate : 48.0 kHzFrame rate : 46.875 FPS (1024 SPF)Compression mode : LossyStream size : 128 MiB (6%)Title : Russian / Dub, Blu-Ray EUREncoded date : UTC 2018-07-24 12:46:48Tagged date : UTC 2018-07-24 13:04:42

Audio #2ID : 3Format : AACFormat/Info : Advanced Audio CodecFormat profile : LCCodec ID : mp4a-40-2Duration : 2 h 19 minBit rate mode : VariableBit rate : 128 kb/sMaximum bit rate : 136 kb/sChannel(s) : 2 channelsChannel positions : Front: L RSampling rate : 48.0 kHzFrame rate : 46.875 FPS (1024 SPF)Compression mode : LossyStream size : 128 MiB (6%)Title : Ukrainian / Dub, PostmodernEncoded date : UTC 2018-07-24 12:51:00Tagged date : UTC 2018-07-24 13:04:42

Audio #3ID : 4Format : AACFormat/Info : Advanced Audio CodecFormat profile : LCCodec ID : mp4a-40-2Duration : 2 h 19 minBit rate mode : VariableBit rate : 128 kb/sMaximum bit rate : 136 kb/sChannel(s) : 2 channelsChannel positions : Front: L RSampling rate : 48.0 kHzFrame rate : 46.875 FPS (1024 SPF)Compression mode : LossyStream size : 128 MiB (6%)Title : English / OriginalEncoded date : UTC 2018-07-24 12:42:21Tagged date : UTC 2018-07-24 13:04:42

Text #1ID : 5Format : Timed TextCodec ID : tx3gDuration : 1 h 53 minBit rate mode : VariableBit rate : 1 b/sStream size : 1.15 KiB (0%)Title : Russian / ForcedForced : NoEncoded date : UTC 2018-07-24 13:04:42Tagged date : UTC 2018-07-24 13:04:42

Text #2ID : 6Format : Timed TextCodec ID : tx3gDuration : 2 h 11 minBit rate mode : VariableBit rate : 97 b/sStream size : 93.3 KiB (0%)Title : Russian / FullForced : NoEncoded date : UTC 2018-07-24 13:04:42Tagged date : UTC 2018-07-24 13:04:42

Text #3ID : 7Format : Timed TextCodec ID : tx3gDuration : 2 h 19 minBit rate mode : VariableBit rate : 3 b/sStream size : 3.17 KiB (0%)Title : Ukrainian / ForcedForced : NoEncoded date : UTC 2018-07-24 13:04:42Tagged date : UTC 2018-07-24 13:04:42

Text #4ID : 8Format : Timed TextCodec ID : tx3gDuration : 2 h 9 minBit rate mode : VariableBit rate : 69 b/sStream size : 65.1 KiB (0%)Title : English / FullForced : NoEncoded date : UTC 2018-07-24 13:04:42Tagged date : UTC 2018-07-24 13:04:42

Text #5ID : 9Format : Timed TextCodec ID : tx3gDuration : 2 h 9 minBit rate mode : VariableBit rate : 66 b/sStream size : 62.6 KiB (0%)Title : English / SDHForced : NoEncoded date : UTC 2018-07-24 13:04:42Tagged date : UTC 2018-07-24 13:04:42


Трекер:  [ 24-Июл-2018 16:36 ]

  

Скачать .torrent

Размер .torrent файла 11 KB


Размер: 2.07 GB
Хэш (hash) релиза: 9e1f29f660805882f1da4ccf6ac7214e08a35e4c

Еще никто не оставлял запись к записи скачать торрент [VIDEO] Первому игроку приготовиться Ready Player One . Будь первым!

!Обратная связь