Скачать через торрент Жила-была Царевна Жила-была Царевна Фильм бесплатно в хорошем качестве torrent

Скачивайте на UnionPeer.org фильмы через торрент без регистрации. Новинки кино в хорошем качестве через торрент. На UnionPeer.org можно скачать через торрент фильмы 2014 и 2015 годов. Самые новые фильмы.

Скачать торрент Жила-была Царевна Жила-была Царевна бесплатно через .torrent фильм мультфильм сериал

Статистика раздачи
Размер:  811 MB   |    Зарегистрирован:  4 месяца 19 дней   |    .torrent скачан:  47 раз   |   
Раздают:  1  
   
загрузка...
 
Автор Сообщение

Galfimbul

avatar Galfimbul


Жила-была Царевна / Жила-была Царевна

Страна: Россия
Жанр: рисованный, детский, обучающий, познавательный
Продолжительность серии: 00:08:00
Год выпуска: 2013
Перевод: Не требуется
Русские субтитры: нет

Режиссёр: Наталья Титаренко
Роли озвучивали: Алёна Созинова, Василий Шемякинский

Описание: Жила-была Царевна - многосерийный мультфильм для детей про маленькую обаятельную и непоседливую девчушку. В каждой серии - поучительная история из ее жизни. Она хоть и царевна, желания у нее совершенно обыкновенные, как и у любого ребенка - побольше сладостей и поменьше нравоучений!

Список серий:
01. Не буду спать!
02. Замарашка
03. Жадина!
04. Волшебные сказки
05. Замарашка
06. Про еду
07. Не хочу проигрывать!
08. Шапку долой!
09. Про уборку
10. Хочу на море!
11. Не хочу в садик!
12. С Новым годом!
13. Ай, болит!
14. Мульти-Пульти

Доп. информация:

Качество: WEB-DLRip
Формат: MP4
Видео: 1280x720 (1,78:1), 30 fps, avc1 ~1080 kbps avg, 0.039 Bits/(Pixel*Frame)
Аудио: 44.1 kHz, AAC, 2.0 (L,R) ch, ~126 kbps avg
Субтитры: отсутствуют
Полное имя : \\10.27.0.17\видео\Мультфильмы\Жила-была Царевна\05. Замарашка.mp4Формат : MPEG-4Профиль формата : Base Media / Version 2Идентификатор кодека : mp42 (isom/mp42)Размер файла : 48,7 МбайтПродолжительность : 5 м. 37 с.Режим общего битрейта : ПеременныйОбщий поток : 1209 Кбит/секДата кодирования : UTC 2018-06-06 18:37:39Дата пометки : UTC 2018-06-06 18:37:39gsst : 0gstd : 337641

Идентификатор : 1Формат : AVCФормат/Информация : Advanced Video CodecПрофиль формата : Main@L3.1Настройки формата : CABAC / 3 Ref FramesПараметр CABAC формата : ДаПараметр RefFrames формата : 3 кадраИдентификатор кодека : avc1Идентификатор кодека/Информация : Advanced Video CodingПродолжительность : 5 м. 37 с.Битрейт : 1080 Кбит/секШирина : 1280 пикселейВысота : 720 пикселейСоотношение сторон : 16:9Режим частоты кадров : ПостоянныйЧастота кадров : 30,000 кадров/секЦветовое пространство : YUVСубдискретизация насыщенности : 4:2:0Битовая глубина : 8 битТип развёртки : ПрогрессивнаяБит/(Пиксели*Кадры) : 0.039Размер потока : 43,4 Мбайт (89%)Заголовок : ISO Media file produced by Google Inc. Created on: 06/06/2018.Дата кодирования : UTC 2018-06-06 18:37:39Дата пометки : UTC 2018-06-06 18:37:39Цветовой диапазон : LimitedОсновные цвета : BT.709Характеристики трансфера : BT.709Коэффициенты матрицы : BT.709

Идентификатор : 2Формат : AACФормат/Информация : Advanced Audio CodecПрофиль формата : LCИдентификатор кодека : mp4a-40-2Продолжительность : 5 м. 37 с.Вид битрейта : ПеременныйБитрейт : 126 Кбит/секКаналы : 2 каналаРасположение каналов : Front: L RЧастота : 44,1 КГцЧастота кадров : 43,066 кадра/сек (1024 SPF)Метод сжатия : С потерямиРазмер потока : 5,05 Мбайт (10%)Заголовок : ISO Media file produced by Google Inc. Created on: 06/06/2018.Дата кодирования : UTC 2018-06-06 18:37:39Дата пометки : UTC 2018-06-06 18:37:39
Предыдущие и альтернативные раздачи

Трекер:  [ 24-Июл-2018 16:54 ]

  

Скачать .torrent

Размер .torrent файла 17 KB


Размер: 811 MB
Хэш (hash) релиза: 05ba504401c47c0954519792030ca8e13332368e
Подписка на обновления:

Еще никто не оставлял запись к записи скачать торрент Жила-была Царевна Жила-была Царевна . Будь первым!

!Обратная связь