Скачать через торрент Огромный морской змей Giant Sea Serpent Фильм бесплатно в хорошем качестве torrent

Скачивайте на UnionPeer.org фильмы через торрент без регистрации. Новинки кино в хорошем качестве через торрент. На UnionPeer.org можно скачать через торрент фильмы 2014 и 2015 годов. Самые новые фильмы.

Скачать торрент Огромный морской змей Giant Sea Serpent бесплатно через .torrent фильм мультфильм сериал

Статистика раздачи
Размер:  2.03 GB   |    Зарегистрирован:  1 месяц 28 дней   |    .torrent скачан:  20 раз   |   
Раздают:  1  
   
загрузка...
 
Автор Сообщение

Galfimbul

avatar Galfimbul


Огромный морской змей / Giant Sea Serpent

Год выпуска: 2015
Страна: France
Студия: ARTE France
Жанр: Документальный
Продолжительность: 00:43:36
Перевод: Студийный (одноголосый закадровый)
Доп. инфо о переводе: Велес / Станислав Войнич
Русские субтитры: нет

Режиссер: Бертран Лойер/Bertrand Loyer

Описание:

Специализированные буи открывают новые возможности наблюдения за морским змеем, источником множества мифов и легенд. Первым в мире исследованиями Морского Змея занялся голландский энтомолог доктор Антон Корнелис Удеманс. Его труд содержал 592 страницы и назывался "Великий морской змей".Размеры, упоминаемые различными авторами, варьируются от 20 до 250 футов (от 6 до 76 метров), но наиболее часто говорится о тех, длина которых составляет 50—100 футов (19—30 метров). Голова очень маленькая по сравнению с телом (1/25 от общей длины) и формой похожа на голову змеи, но иногда ее описывают похожей на голову собаки, моржа, настоящего тюленя или ушастого тюленя.

Сэмпл: http://multi-up.com/1204612

Тип релиза: HDTV 1080i
Контейнер: TS

Видео: AVC, 1920x1080, (16:9), 25 fps, 5.9 Mbps
Аудио: Russian, MP2, 48 kHz, 2 ch; 192 kbps
Аудио 2: English, MP2, 48 kHz, 2 ch; 192 kbps
GeneralID : 1 (0x1)Complete name : F:\Огромный морской змей_HDTV 1080i_RUS_ENG-dds.tsFormat : MPEG-TSFile size : 2.03 GiBDuration : 43 min 36 sOverall bit rate mode : VariableOverall bit rate : 6 650 kb/s

VideoID : 201 (0xC9)Menu ID : 20101 (0x4E85)Format : AVCFormat/Info : Advanced Video CodecFormat profile : High@L4Format settings : CABAC / 4 Ref FramesFormat settings, CABAC : YesFormat settings, RefFrames : 4 framesCodec ID : 27Duration : 43 min 36 sBit rate : 5 933 kb/sWidth : 1 920 pixelsHeight : 1 080 pixelsDisplay aspect ratio : 16:9Frame rate : 25.000 FPSStandard : ComponentColor space : YUVChroma subsampling : 4:2:0Bit depth : 8 bitsScan type : InterlacedScan type, store method : Separated fieldsScan order : Top Field FirstBits/(Pixel*Frame) : 0.114Stream size : 1.81 GiB (89%)Color range : LimitedColor primaries : BT.709Transfer characteristics : BT.709Matrix coefficients : BT.709

Audio #1ID : 301 (0x12D)Menu ID : 20101 (0x4E85)Format : MPEG AudioFormat version : Version 1Format profile : Layer 2Codec ID : 3Duration : 43 min 36 sBit rate mode : ConstantBit rate : 192 kb/sChannel(s) : 2 channelsSampling rate : 48.0 kHzFrame rate : 41.667 FPS (1152 SPF)Compression mode : LossyStream size : 59.9 MiB (3%)Language : Russian

Audio #2ID : 401 (0x191)Menu ID : 20101 (0x4E85)Format : MPEG AudioFormat version : Version 1Format profile : Layer 2Codec ID : 3Duration : 43 min 36 sBit rate mode : ConstantBit rate : 192 kb/sChannel(s) : 2 channelsSampling rate : 48.0 kHzFrame rate : 41.667 FPS (1152 SPF)Compression mode : LossyStream size : 59.9 MiB (3%)Language : English


Трекер:  [ 25-Июл-2018 10:06 ]

  

Скачать .torrent

Размер .torrent файла 10 KB


Размер: 2.03 GB
Хэш (hash) релиза: 2e7428ad4183432ae37a16c816d1d33c5ea1a52e
Подписка на обновления:

Еще никто не оставлял запись к записи скачать торрент Огромный морской змей Giant Sea Serpent . Будь первым!

!Обратная связь