Скачать через торрент Кукутики Кукутики Фильм бесплатно в хорошем качестве torrent

Скачивайте на UnionPeer.org фильмы через торрент без регистрации. Новинки кино в хорошем качестве через торрент. На UnionPeer.org можно скачать через торрент фильмы 2014 и 2015 годов. Самые новые фильмы.

Скачать торрент Кукутики Кукутики бесплатно через .torrent фильм мультфильм сериал

Статистика раздачи
Размер:  4.58 GB   |    Зарегистрирован:  2 месяца 22 дня   |    .torrent скачан:  29 раз   |   
Раздают:  1  
   
загрузка...
 
Автор Сообщение

Galfimbul

avatar Galfimbul


Кукутики

Страна: Россия
Жанр: детский, обучающий, познавательный
Продолжительность серии: 00:05:00
Год выпуска: 2016 - н.в.
Перевод: Не требуется
Русские субтитры: нет

Режиссёр: Артур Днепровский
Описание: Развивающий мультсериал для самых маленьких, который поможет деткам быстрее усвоить слова и движения. Пойте и танцуйте вместе с кукутиками! Пятеро кукутиков – Мышонок, Поросенок, Енот, Девочка и Мальчик – одна команда. Вместе они проводят настоящее развлекательное шоу, в котором снимают музыкальные клипы. Присоединиться к съемкам могут и маленькие зрители. Участники шоу поют забавные детские песенки, помогают детям разучить их слова, а также учат танцевать в такт мелодии. Кроме того, их песенки расскажут детям о полезных вещах: как дружелюбно здороваться, как правильно попросить прощения и так далее. Танцуя вместе с кукутиками, дети разучат новые движения и научатся придумывать свои.
001. КУКУТИКИ - Машинка.mp4
002. КУКУТИКИ - Зарядка.mp4
003. КУКУТИКИ - Мыльные пузыри.mp4
004. КУКУТИКИ - Паучок.mp4
005. КУКУТИКИ - Еду на машине.mp4
006. КУКУТИКИ - Баночка варенья.mp4
007. КУКУТИКИ - Зоопарк.mp4
008. КУКУТИКИ - Бульдозер.mp4
009. КУКУТИКИ - В лесу родилась ёлочка.mp4
010. КУКУТИКИ - В лесу родилась елочка 2.mp4
011. КУКУТИКИ - Кот Леопольд.mp4
012. КУКУТИКИ - Пять котят.mp4
013. КУКУТИКИ - Теплоходик.mp4
014. КУКУТИКИ - День Рождения.mp4
015. КУКУТИКИ - Кря Кря.mp4
016. КУКУТИКИ - Мама - 8 марта.mp4
017. КУКУТИКИ и Поросенок Фунтик - Доброта.mp4
018. КУКУТИКИ - Каша.mp4
019. КУКУТИКИ и ФИКСИКИ - Помогатор.mp4
020. КУКУТИКИ - Автобус Троллейбус Трамвай.mp4
021. КУКУТИКИ - Ам ням ням.mp4
022. КУКУТИКИ и ФИКСИКИ - Винтик.mp4
023. КУКУТИКИ - Папа.mp4
024. КУКУТИКИ - Паровозик.mp4
025. КУКУТИКИ - Машинки с мигалками.mp4
026. КУКУТИКИ - Молоток.mp4
027. КУКУТИКИ - Кар-кар.mp4
028. КУКУТИКИ - Подъёмный кран.mp4
029. КУКУТИКИ - Колыбельная.mp4
030. КУКУТИКИ - Песочница.mp4
031. КУКУТИКИ - Горшок.mp4
032. КУКУТИКИ - Новый год 2017.mp4
033. КУКУТИКИ - Машинка 2.mp4
034. КУКУТИКИ - Кап-кап.mp4
035. КУКУТИКИ - Врум.mp4
036. КУКУТИКИ - Белка и Стрелка.mp4
037. КУКУТИКИ - Подводная лодка.mp4
038. КУКУТИКИ - Репка.mp4
039. КУКУТИКИ - Радуга.mp4
040. КУКУТИКИ - Мамопомогалочка - 8 марта.mp4
041. КУКУТИКИ - Море.mp4
042. КУКУТИКИ - Прятки.mp4
043. КУКУТИКИ - Машинка (новая версия).mp4
044. КУКУТИКИ - Пузыри.mp4
045. КУКУТИКИ и СИНИЙ ТРАКТОР - Что ты делал Синий трактор.mp4
046. КУКУТИКИ - Принцесса.mp4
047. КУКУТИКИ - Зверушки.mp4
048. КУКУТИКИ - Кукутики и Ам Ням - Вкусняшки.mp4
049. КУКУТИКИ - Кря Кря (новая версия).mp4
050. КУКУТИКИ - Делай так.mp4
051. КУКУТИКИ - Доброта.mp4
052. КУКУТИКИ - Ладушки.mp4
053. КУКУТИКИ - Подъёмный кран (новая версия).mp4
054. КУКУТИКИ - Зарядка (новая версия).mp4
055. КУКУТИКИ - Велосипед.mp4
056. КУКУТИКИ и САМОДЕЛКИН - Тук-тук Инструменты.mp4
057. КУКУТИКИ - Рабочие Машинки.mp4
058. КУКУТИКИ - Светофоры.mp4
059. КУКУТИКИ - Курочка Ряба.mp4
060. КУКУТИКИ - Гуси-лебеди.mp4
061. КУКУТИКИ - Тук-тук Инструменты.mp4
062. КУКУТИКИ - Люли Машинка.mp4
063. КУКУТИКИ - Пузожитель.mp4
064. КУКУТИКИ - Бабушка.mp4
065. КУКУТИКИ - Молоток.mp4
066. КУКУТИКИ - Колобок.mp4
067. КУКУТИКИ и ТРИ МЕДВЕДЯ - 2018 Новый Год.mp4
068. КУКУТИКИ - Ёлочка.mp4
069. КУКУТИКИ - Мама.mp4
070. КУКУТИКИ - Песочница.mp4
071. КУКУТИКИ - Пупсик.mp4
072. КУКУТИКИ - Горшок (новая версия).mp4
073. КУКУТИКИ - Дедушка.mp4
074. КУКУТИКИ - Игрушки.mp4
075. КУКУТИКИ - Маша и Три Медведя.mp4
076. КУКУТИКИ - Зоопарк (новая версия).mp4
077. КУКУТИКИ - Киса Кошка (песенка).mp4
078. КУКУТИКИ - Киса Кошка (мультик).mp4
079. КУКУТИКИ - Семеро Козлят.mp4
080. КУКУТИКИ - Животные.mp4
081. КУКУТИКИ - Частушки.mp4
082. КУКУТИКИ - Букашки.mp4
083. КУКУТИКИ - Емеля.mp4
Доп. информация: Все серии взяты с официального канала КУКУТИКИ - Детские песни и мультикиРаздача ведется добавлением новых серий
Качество: WEB-DL 1080p
Формат: MP4
Видео: 1920x1080 (1,78:1), 25 fps, avc1 ~1248-2046 kbps avg, 0.024 Bits/(Pixel*Frame)
Аудио: 44.1 kHz, AAC, 2.0 (L,R) ch, ~126 kbps avg
Субтитры: отсутствуют
Полное имя : 076. КУКУТИКИ - Зоопарк (новая версия).mp4Формат : MPEG-4Профиль формата : Base MediaИдентификатор кодека : isom (isom/iso2/avc1/mp41)Размер файла : 48,2 МбайтПродолжительность : 4 м. 52 с.Общий поток : 1380 Кбит/секПрограмма кодирования : Lavf56.40.101

Идентификатор : 1Формат : AVCФормат/Информация : Advanced Video CodecПрофиль формата : High@L4Настройки формата : CABAC / 3 Ref FramesПараметр CABAC формата : ДаПараметр RefFrames формата : 3 кадраИдентификатор кодека : avc1Идентификатор кодека/Информация : Advanced Video CodingПродолжительность : 4 м. 52 с.Duration_FirstFrame : -40 мс.Битрейт : 1248 Кбит/секШирина : 1920 пикселейВысота : 1080 пикселейСоотношение сторон : 16:9Режим частоты кадров : ПеременныйЧастота кадров : 25,000 кадров/секМинимальная частота кадров : 25,000 кадров/секМаксимальная частота кадров : 25,014 кадров/секЦветовое пространство : YUVСубдискретизация насыщенности : 4:2:0Битовая глубина : 8 битТип развёртки : ПрогрессивнаяБит/(Пиксели*Кадры) : 0.024Размер потока : 43,6 Мбайт (90%)Цветовой диапазон : LimitedОсновные цвета : BT.709Характеристики трансфера : BT.709Коэффициенты матрицы : BT.709

Идентификатор : 2Формат : AACФормат/Информация : Advanced Audio CodecПрофиль формата : LCИдентификатор кодека : mp4a-40-2Продолжительность : 4 м. 52 с.Вид битрейта : ПостоянныйБитрейт : 126 Кбит/секКаналы : 2 каналаРасположение каналов : Front: L RЧастота : 44,1 КГцЧастота кадров : 43,066 кадра/сек (1024 SPF)Метод сжатия : С потерямиРазмер потока : 4,38 Мбайт (9%)Default : ДаAlternateGroup/String : 1
Предыдущие и альтернативные раздачи

Трекер:  [ 25-Июл-2018 11:54 ]

  

Скачать .torrent

Размер .torrent файла 19 KB


Размер: 4.58 GB
Хэш (hash) релиза: afceb284c38ee6d1527e69e52ca958c3e7266f22
Подписка на обновления:

Еще никто не оставлял запись к записи скачать торрент Кукутики Кукутики . Будь первым!

!Обратная связь