Скачать через торрент Кровавые соперники: гиппопотамы против львов Blood Rivals - Hippo Vs Lion Фильм бесплатно в хорошем качестве torrent

Скачивайте на UnionPeer.org фильмы через торрент без регистрации. Новинки кино в хорошем качестве через торрент. На UnionPeer.org можно скачать через торрент фильмы 2014 и 2015 годов. Самые новые фильмы.

Скачать торрент Кровавые соперники: гиппопотамы против львов Blood Rivals - Hippo Vs Lion бесплатно через .torrent фильм мультфильм сериал

Статистика раздачи
Размер:  2.42 GB   |    Зарегистрирован:  3 месяца 21 день   |    .torrent скачан:  29 раз   |   
Раздают:  1  
   
загрузка...
 
Автор Сообщение

Galfimbul

avatar Galfimbul


Кровавые соперники: гиппопотамы против львов / Blood Rivals - Hippo Vs Lion

Год выпуска: 2015
Страна: USA
Студия: Earht Touch
Жанр: Документальный
Продолжительность: 000:44:00
Перевод: Студийный (одноголосый закадровый)
Доп. инфо о переводе: Велес / Станислав Войнич
Русские субтитры: нет

Описание:

Днём гиппопотамы агрессивны и не терпят вторжения на свою территорию, а ночью контроль переходит в лапы хищников, охотящихся на добычу.

Сэмпл: http://multi-up.com/1204627

Тип релиза: HDTV 1080i
Контейнер: TS

Видео: AVC, 1920x1080, (16:9), 25 fps, 7 085 kb/s
Аудио: Russian, MP2, 48 kHz, 2 ch; 192 kbps
Аудио 2: English, MP2, 48 kHz, 2 ch; 192 kbps
GeneralID : 1 (0x1)Complete name : F:\Gippo v. Lion_HDTV 1080i_RUS_ENG-dds.tsFormat : MPEG-TSFile size : 2.42 GiBDuration : 44 min 0 sOverall bit rate mode : VariableOverall bit rate : 7 862 kb/s

VideoID : 201 (0xC9)Menu ID : 20101 (0x4E85)Format : AVCFormat/Info : Advanced Video CodecFormat profile : High@L4Format settings : CABAC / 4 Ref FramesFormat settings, CABAC : YesFormat settings, RefFrames : 4 framesCodec ID : 27Duration : 44 min 0 sBit rate : 7 085 kb/sWidth : 1 920 pixelsHeight : 1 080 pixelsDisplay aspect ratio : 16:9Frame rate : 25.000 FPSStandard : ComponentColor space : YUVChroma subsampling : 4:2:0Bit depth : 8 bitsScan type : InterlacedScan type, store method : Separated fieldsScan order : Top Field FirstBits/(Pixel*Frame) : 0.137Stream size : 2.18 GiB (90%)Color range : LimitedColor primaries : BT.709Transfer characteristics : BT.709Matrix coefficients : BT.709

Audio #1ID : 301 (0x12D)Menu ID : 20101 (0x4E85)Format : MPEG AudioFormat version : Version 1Format profile : Layer 2Codec ID : 3Duration : 44 min 0 sBit rate mode : ConstantBit rate : 192 kb/sChannel(s) : 2 channelsSampling rate : 48.0 kHzFrame rate : 41.667 FPS (1152 SPF)Compression mode : LossyDelay relative to video : -120 msStream size : 60.4 MiB (2%)Language : Russian

Audio #2ID : 401 (0x191)Menu ID : 20101 (0x4E85)Format : MPEG AudioFormat version : Version 1Format profile : Layer 2Codec ID : 3Duration : 44 min 0 sBit rate mode : ConstantBit rate : 192 kb/sChannel(s) : 2 channelsSampling rate : 48.0 kHzFrame rate : 41.667 FPS (1152 SPF)Compression mode : LossyDelay relative to video : -120 msStream size : 60.4 MiB (2%)Language : English


Трекер:  [ 25-Июл-2018 14:06 ]

  

Скачать .torrent

Размер .torrent файла 12 KB


Размер: 2.42 GB
Хэш (hash) релиза: b71c05190230349f25b40876f7e682f46b8e207c
Подписка на обновления:

Еще никто не оставлял запись к записи скачать торрент Кровавые соперники: гиппопотамы против львов Blood Rivals - Hippo Vs Lion . Будь первым!

!Обратная связь