Скачать через торрент Вандред: Завихрения бесплатно Аниме Все серии на русском torrent

Статистика раздачи
Размер:  1.26 GB   |    Зарегистрирован:  3 месяца 23 дня   |    .torrent скачан:  36 раз   |   
Раздают:  1  
   
загрузка...
 
Автор Сообщение

Galfimbul

avatar Galfimbul



Страна: Япония
Год выпуска: 2002
Жанр: фантастика, комедия, меха
Тип: OVA
Продолжительность: 1 эп, ~86 мин
Режиссер: Мори Такэси
Студия: Gonzo Digimation

Субтитры:
1: полные/надписи
Shtirlitz (перевод) Veacheslav420 (редакция) [1 часть]
Korzak (перевод) [2 часть]

Озвучка:
1: Отсутствует <img class="smile" src="//static.t-ru.org/smiles/icon_sad.gif" alt="">
Порядок просмотра:
1: Vandread TV 1
2: Vandread OVA 1
3: Vandread TV 2
4: Vandread OVA 2 - эта раздача
Информационные ссылки: MAL | World Art | AniDB
Описание: Ешь, или сожрут тебя! Обнаружение дрейфующей, спасательной капсулы влечет очередную угрозу для «Нирваны», чей экипаж пополняется за счет двух новых членов. Пришельцы, над происхождением которых чуть приоткрылась завеса тайны, атакуют «Нирвану» все более изощренными способами. Команда отчаянно сопротивляется, сам корабль претерпевает неожиданную трансформацию, и цепочка трагических событий приводит к немыслимому результату: Барт взрослеет!

© (World Art)
Качество: DVDRip
Тип видео: Без хардсаба, Без линковки
Автор рипа: KgOlve
Формат видео: MKV
Главы: присутствуют
Совместимость с бытовыми плеерами: нет
Видео: х264, 10 bit, 712x364 (@712x401), ~1885 kbps, 23.976 fps
Аудио JAP: AC3, 192 kbps, 48.0 kHz, 2 ch (в составе контейнера)
Субтитры RUS (1): ASS (внешними файлами)
<div class="sp-wrap">
<div class="sp-head folded">Media Info</div>
<div class="sp-body">

GeneralUnique ID : 313569090044458612506736092624768649883 (0xEBE735C38C7EC45F68A8D0371946CA9B)Complete name : E:\Раздачи\Vandread OVA 2\[28] Vandread OVA 2.mkvFormat : MatroskaFormat version : Version 4 / Version 2File size : 1.26 GiBDuration : 1 h 26 minOverall bit rate : 2 078 kb/sMovie name : Vandread OVA 2Encoded date : UTC 2018-05-05 02:18:53Writing application : mkvmerge v23.0.0 ('The Bride Said No') 64-bitWriting library : libebml v1.3.6 + libmatroska v1.4.9

VideoID : 1Format : AVCFormat/Info : Advanced Video CodecFormat profile : High 10@L3.1Format settings, CABAC : YesFormat settings, RefFrames : 15 framesCodec ID : V_MPEG4/ISO/AVCDuration : 1 h 26 minBit rate : 1 845 kb/sWidth : 712 pixelsHeight : 364 pixelsDisplay aspect ratio : 16:9Original display aspect ratio : 16:9Frame rate mode : ConstantFrame rate : 23.976 (24000/1001) FPSColor space : YUVChroma subsampling : 4:2:0Bit depth : 10 bitsScan type : ProgressiveBits/(Pixel*Frame) : 0.297Stream size : 1.12 GiB (89%)Title : [KgOlve]Writing library : x264 core 138 r2358 9e941d1Encoding settings : cabac=1 / ref=16 / deblock=1:0:0 / analyse=0x3:0x133 / me=umh / subme=11 / psy=1 / psy_rd=0.40:0.00 / mixed_ref=1 / me_range=38 / chroma_me=1 / trellis=2 / 8x8dct=1 / cqm=0 / deadzone=21,11 / fast_pskip=0 / chroma_qp_offset=-2 / threads=12 / lookahead_threads=2 / sliced_threads=0 / nr=0 / decimate=1 / interlaced=0 / bluray_compat=0 / stitchable=1 / constrained_intra=0 / bframes=16 / b_pyramid=1 / b_adapt=2 / b_bias=0 / direct=3 / weightb=1 / open_gop=0 / weightp=2 / keyint=240 / keyint_min=23 / scenecut=40 / intra_refresh=0 / rc_lookahead=48 / rc=crf / mbtree=1 / crf=13.0 / qcomp=0.60 / qpmin=0 / qpmax=81 / qpstep=4 / ip_ratio=1.40 / aq=1:1.00Language : JapaneseDefault : YesForced : No

AudioID : 2Format : AC-3Format/Info : Audio Coding 3Format settings, Endianness : BigCodec ID : A_AC3Duration : 1 h 26 minBit rate mode : ConstantBit rate : 192 kb/sChannel(s) : 2 channelsChannel positions : Front: L RSampling rate : 48.0 kHzFrame rate : 31.250 FPS (1536 SPF)Bit depth : 16 bitsCompression mode : LossyStream size : 119 MiB (9%)Title : [Original]Language : JapaneseService kind : Complete MainDefault : YesForced : No

Menu00:00:00.000 : ru:Часть А01:22:25.858 : ru:Эндинг
File: E:\Раздачи\Vandread OVA 2\[28] Vandread OVA 2.mkv Duration: 01:26:33 (5193.23) Track #1: video ([KgOlve]) lang: jpn (2) codc: V_MPEG4/ISO/AVC -> H264/AVC (22) reso: 712x364 (712x401) -> Unknown (aka not common) anamorphic fram: 23.976 fps rate: 1885 kbps (1884.52) dura: 01:26:33 (5193.19) size: 1.14 GB (1223331794) Track #2: audio ([Original]) lang: jpn -> Japanese (2) codc: A_AC3 -> AC3 (2) chan: 2 -> Stereo samp: 48000 Hz rate: 192 kbps (192.04) dura: 01:26:33 (5193.02) size: 118.88 MB (124658049) Sizes: (check sanity) disk: 1.26 GB (1349077961) trac: 1.26 GB (1347989843) [based on track size] bitr: 1.26 GB (1347993625) [based on bitrate] tdif: 1.04 MB (1088118) 0.08% bdif: 1.03 MB (1084335) 0.08%
</div>
</div>
1. Завихрения
...3847487
- лучше качество видео https://slowpics.org/comparison/332365cd-2b19-4e34-b29f-8287840398fa

В данном релизе озвучка и субтитры выложены внешними файлами.
Для просмотра на ПК

с озвучкой: переместите mka файлы из папки "Rus Sound -> [Команда/ники дабберов]" и ass файлы из папки "Rus Subs -> [Команда/ники сабберов] Надписи" (по желанию) в папку с видео.
с субтитрами: переместите ass файлы из папки "Rus Subs -> [Команда/ники сабберов] Полные" в папку с видео.

90% современных плееров подключат дорожки автоматически. Так же рекомендуется указать rus и(ли) ru, как язык по умолчанию для выбора дорожек, в настройках вашего плеера и(ли) рендера. Подробнее о настройке плеера можно прочитать тут.
Если релиз содержит 10 битное видео, и у вас проблемы с качеством картинки, инструкцию по просмотру можно найти тут.
Все видео файлы в моих релизах пересобираются. Вы не сможете раздавать их на других раздачах.
Если в релизе есть раздел "Порядок просмотра":

Скачайте все части тайтла.
Поместите все раздачи (видео и необходимые дорожки) в одну папку.
Все сезоны и серии будут в необходимом порядке для просмотра.


Трекер:  [ 25-Июл-2018 15:30 ]

  

Скачать .torrent

Размер .torrent файла 26 KB


Размер: 1.26 GB
Хэш (hash) релиза: 19c06e8e3558ba1c3ab021e9f089de2498cc06d4
Подписка на обновления:

Еще никто не оставлял запись к записи скачать торрент Вандред: Завихрения . Будь первым!

!Обратная связь