Скачать через торрент Вандред: Второй Уровень бесплатно Аниме Все серии на русском torrent

Статистика раздачи
Размер:  4.26 GB   |    Зарегистрирован:  4 месяца 17 дней   |    .torrent скачан:  47 раз   |   
Раздают:  1  
   
загрузка...
 
Автор Сообщение

Galfimbul

avatar Galfimbul



Страна: Япония
Год выпуска: 2001
Жанр: фантастика, комедия, меха
Тип: TV
Продолжительность: 13 эп, ~24 мин серия
Режиссер: Мори Такэси
Студия: Gonzo Digimation

Субтитры:
1: полные/надписи MC Entertainment

Озвучка:
1: многоголосая MC Entertainment
Порядок просмотра:
1: Vandread TV 1
2: Vandread OVA 1
3: Vandread TV 2 - эта раздача
4: Vandread OVA 2
Информационные ссылки: MAL | World Art | AniDB
Описание: Ешь, или сожрут тебя! Обнаружение дрейфующей, спасательной капсулы влечет очередную угрозу для «Нирваны», чей экипаж пополняется за счет двух новых членов. Пришельцы, над происхождением которых чуть приоткрылась завеса тайны, атакуют «Нирвану» все более изощренными способами. Команда отчаянно сопротивляется, сам корабль претерпевает неожиданную трансформацию, и цепочка трагических событий приводит к немыслимому результату: Барт взрослеет!

© (World Art)
Качество: DVDRip
Тип видео: Без хардсаба, Без линковки
Автор рипа: AMBROZI1
Формат видео: MKV
Главы: присутствуют
Совместимость с бытовыми плеерами: нет
Видео: х264, 8 bit, 704x400, ~1276 kbps, 23.976 fps
Аудио JAP: AC3, 384 kbps, 48.0 kHz, 5.1 ch (в составе контейнера)
Аудио RUS (1): AC3, 384 kbps, 48.0 kHz, 5.1 ch (внешними файлами)
Субтитры RUS (1): ASS (внешними файлами)
<div class="sp-wrap">
<div class="sp-head folded">Media Info</div>
<div class="sp-body">

GeneralUnique ID : 313270175511695770251775350061515207582 (0xEBADA423B9F6FF462BA2DD038C7CF39E)Complete name : E:\Раздачи\Vandread TV 2\[15] Vandread TV 2 01 серия.mkvFormat : MatroskaFormat version : Version 4 / Version 2File size : 273 MiBDuration : 22 min 56 sOverall bit rate : 1 662 kb/sMovie name : Vandread TV 2 01 серияEncoded date : UTC 2018-07-21 12:23:19Writing application : mkvmerge v25.0.0 ('Prog Noir') 64-bitWriting library : libebml v1.3.6 + libmatroska v1.4.9

VideoID : 1Format : AVCFormat/Info : Advanced Video CodecFormat profile : High@L5.1Format settings : CABAC / 16 Ref FramesFormat settings, CABAC : YesFormat settings, ReFrames : 16 framesCodec ID : V_MPEG4/ISO/AVCDuration : 22 min 56 sBit rate : 1 276 kb/sWidth : 704 pixelsHeight : 400 pixelsDisplay aspect ratio : 16:9Frame rate mode : ConstantFrame rate : 23.976 (24000/1001) FPSColor space : YUVChroma subsampling : 4:2:0Bit depth : 8 bitsScan type : ProgressiveBits/(Pixel*Frame) : 0.189Stream size : 204 MiB (75%)Title : [AMBROZI1]Writing library : x264 core 56 svn-667CEncoding settings : cabac=1 / ref=16 / deblock=1:-2:-1 / analyse=0x3:0x133 / me=umh / subme=6 / brdo=1 / mixed_ref=1 / me_range=16 / chroma_me=1 / trellis=2 / 8x8dct=1 / cqm=0 / deadzone=21,11 / chroma_qp_offset=0 / threads=1 / nr=0 / decimate=0 / mbaff=0 / bframes=3 / b_pyramid=1 / b_adapt=1 / b_bias=0 / direct=3 / wpredb=1 / bime=1 / keyint=250 / keyint_min=25 / scenecut=40 / rc=2pass / bitrate=1276 / ratetol=1.0 / rceq='blurCplx^(1-qComp)' / qcomp=0.60 / qpmin=10 / qpmax=51 / qpstep=4 / cplxblur=20.0 / qblur=0.5 / ip_ratio=1.40 / pb_ratio=1.30Language : JapaneseDefault : YesForced : No

AudioID : 2Format : AC-3Format/Info : Audio Coding 3Codec ID : A_AC3Duration : 22 min 56 sBit rate mode : ConstantBit rate : 384 kb/sChannel(s) : 6 channelsChannel positions : Front: L C R, Side: L R, LFESampling rate : 48.0 kHzFrame rate : 31.250 FPS (1536 SPF)Bit depth : 16 bitsCompression mode : LossyStream size : 63.0 MiB (23%)Title : [Original]Language : JapaneseService kind : Complete MainDefault : YesForced : No

Menu00:00:00.000 : ru:Опенинг00:01:28.046 : ru:Часть А00:09:44.959 : ru:Часть Б00:21:27.995 : ru:Эндинг
File: E:\Раздачи\Vandread TV 2\[15] Vandread TV 2 01 серия.mkv Duration: 00:22:56 (1376.08) Track #1: video ([AMBROZI1]) lang: jpn (2) codc: V_MPEG4/ISO/AVC -> H264/AVC (22) reso: 704x400 -> 16:9 fram: 23.976 fps rate: 1276 kbps (1276.4) dura: 00:22:56 (1376.04) size: 209.38 MB (219547071) Track #2: audio ([Original]) lang: jpn -> Japanese (2) codc: A_AC3 -> AC3 (2) chan: 6 -> 5.1 Surround samp: 48000 Hz rate: 384 kbps (384.06) dura: 00:22:56 (1375.81) size: 62.99 MB (66048893) Sizes: (check sanity) disk: 272.64 MB (285885208) trac: 272.37 MB (285595964) [based on track size] bitr: 272.38 MB (285607059) [based on bitrate] tdif: 282.46 KB (289244) 0.10% bdif: 271.63 KB (278148) 0.09%
</div>
</div>
01. Алый ангел
02. Будь моим!
03. Путь, усеянный цветами
04. Всё...
05. Когда-нибудь...
06. Настоящая улыбка
07. Поцелуй меня в щёчку...
08. Реальность
09. Объять необъятное
10. Легко пришло, легко ушло...
11. Рай
12. Секреты
13. Доверие
...60883
- наличие озвучки, не пак

...354053
- отсутствуют исполняемые файлы в раздаче, релиз собран в соответствии с положением об "универсальном релизе", не пак

В данном релизе озвучка и субтитры выложены внешними файлами.
Для просмотра на ПК

с озвучкой: переместите mka файлы из папки "Rus Sound -> [Команда/ники дабберов]" и ass файлы из папки "Rus Subs -> [Команда/ники сабберов] Надписи" (по желанию) в папку с видео.
с субтитрами: переместите ass файлы из папки "Rus Subs -> [Команда/ники сабберов] Полные" в папку с видео.

90% современных плееров подключат дорожки автоматически. Так же рекомендуется указать rus и(ли) ru, как язык по умолчанию для выбора дорожек, в настройках вашего плеера и(ли) рендера. Подробнее о настройке плеера можно прочитать тут.
Если релиз содержит 10 битное видео, и у вас проблемы с качеством картинки, инструкцию по просмотру можно найти тут.
Все видео файлы в моих релизах пересобираются. Вы не сможете раздавать их на других раздачах.
Если в релизе есть раздел "Порядок просмотра":

Скачайте все части тайтла.
Поместите все раздачи (видео и необходимые дорожки) в одну папку.
Все сезоны и серии будут в необходимом порядке для просмотра.


Трекер:  [ 25-Июл-2018 15:30 ]

  

Скачать .torrent

Размер .torrent файла 31 KB


Размер: 4.26 GB
Хэш (hash) релиза: 825d7035cc0356db1699fa3decb86815efeab2dd
Подписка на обновления:

Еще никто не оставлял запись к записи скачать торрент Вандред: Второй Уровень . Будь первым!

!Обратная связь