Скачать через торрент Вандред: Зарождение бесплатно Аниме Все серии на русском torrent

Статистика раздачи
Размер:  1010 MB   |    Зарегистрирован:  4 месяца 17 дней   |    .torrent скачан:  39 раз   |   
Раздают:  1  
   
загрузка...
 
Автор Сообщение

Galfimbul

avatar Galfimbul



Страна: Япония
Год выпуска: 2001
Жанр: фантастика, комедия, меха
Тип: OVA
Продолжительность: 1 эп, ~74 мин
Режиссер: Мори Такэси
Студия: Gonzo Digimation

Субтитры:
1: полные/надписи Рязанский клуб аниме - RAI
J Beili (перевод) Moonsoldier (редакция/тайминг)

Озвучка:
1: Отсутствует <img class="smile" src="//static.t-ru.org/smiles/icon_sad.gif" alt="">
Порядок просмотра:
1: Vandread TV 1
2: Vandread OVA 1 - эта раздача
3: Vandread TV 2
4: Vandread OVA 2
Информационные ссылки: MAL | World Art | AniDB
Описание: Женщины - чудовища! Многие поколения мужчин планеты Тарак героически сражались с яростным врагом - женщинами с планеты Меджеру. Хибики сначала попадает "зайцем" на боевой звездолет, а потом оказывается пленником женщин, в руки которых попадает корабль! Благодаря еще более необычному повороту событий звездолет отброшен в удаленный уголок галактики, где женщины и их заложники встречают нового врага - и объединяются перед лицом общей угрозы. Неужели мужчины и женщины смогут сражаться бок о бок вместо того, чтобы уничтожать друг друга?

© (World Art)
Качество: DVDRip
Тип видео: Без хардсаба, Без линковки
Автор рипа: KgOlve
Формат видео: MKV
Главы: присутствуют
Совместимость с бытовыми плеерами: нет
Видео: х264, 10 bit, 712x364 (@712x401), ~1702 kbps, 23.976 fps
Аудио JAP: AC3, 192 kbps, 48.0 kHz, 2 ch (в составе контейнера)
Субтитры RUS (1): ASS (внешними файлами)
<div class="sp-wrap">
<div class="sp-head folded">Media Info</div>
<div class="sp-body">

GeneralUnique ID : 46589719006788557077737351515749884240 (0x230CDA7E8E14CB7644F0B18782122150)Complete name : E:\Раздачи\Vandread OVA 1\[14] Vandread OVA 1.mkvFormat : MatroskaFormat version : Version 4 / Version 2File size : 1 010 MiBDuration : 1 h 14 minOverall bit rate : 1 896 kb/sMovie name : Vandread OVA 1Encoded date : UTC 2018-07-22 16:31:00Writing application : mkvmerge v25.0.0 ('Prog Noir') 64-bitWriting library : libebml v1.3.6 + libmatroska v1.4.9

VideoID : 1Format : AVCFormat/Info : Advanced Video CodecFormat profile : High 10@L3.1Format settings : CABAC / 15 Ref FramesFormat settings, CABAC : YesFormat settings, ReFrames : 15 framesCodec ID : V_MPEG4/ISO/AVCDuration : 1 h 14 minBit rate : 1 666 kb/sWidth : 712 pixelsHeight : 364 pixelsDisplay aspect ratio : 16:9Original display aspect ratio : 16:9Frame rate mode : ConstantFrame rate : 23.976 (24000/1001) FPSColor space : YUVChroma subsampling : 4:2:0Bit depth : 10 bitsScan type : ProgressiveBits/(Pixel*Frame) : 0.268Stream size : 888 MiB (88%)Title : [KgOlve]Writing library : x264 core 138 r2358 9e941d1Encoding settings : cabac=1 / ref=16 / deblock=1:0:0 / analyse=0x3:0x133 / me=umh / subme=11 / psy=1 / psy_rd=0.40:0.00 / mixed_ref=1 / me_range=38 / chroma_me=1 / trellis=2 / 8x8dct=1 / cqm=0 / deadzone=21,11 / fast_pskip=0 / chroma_qp_offset=-2 / threads=12 / lookahead_threads=2 / sliced_threads=0 / nr=0 / decimate=1 / interlaced=0 / bluray_compat=0 / stitchable=1 / constrained_intra=0 / bframes=16 / b_pyramid=1 / b_adapt=2 / b_bias=0 / direct=3 / weightb=1 / open_gop=0 / weightp=2 / keyint=240 / keyint_min=23 / scenecut=40 / intra_refresh=0 / rc_lookahead=48 / rc=crf / mbtree=1 / crf=13.0 / qcomp=0.60 / qpmin=0 / qpmax=81 / qpstep=4 / ip_ratio=1.40 / aq=1:1.00Language : JapaneseDefault : YesForced : No

AudioID : 2Format : AC-3Format/Info : Audio Coding 3Codec ID : A_AC3Duration : 1 h 14 minBit rate mode : ConstantBit rate : 192 kb/sChannel(s) : 2 channelsChannel positions : Front: L RSampling rate : 48.0 kHzFrame rate : 31.250 FPS (1536 SPF)Bit depth : 16 bitsCompression mode : LossyStream size : 102 MiB (10%)Title : [Original]Language : JapaneseService kind : Complete MainDefault : YesForced : No

Menu00:00:00.000 : ru:Часть А01:08:56.841 : ru:Часть Б01:11:55.102 : ru:Эндинг01:13:48.257 : ru:Часть В
File: E:\Раздачи\Vandread OVA 1\[14] Vandread OVA 1.mkv Duration: 01:14:29 (4468.93) Track #1: video ([KgOlve]) lang: jpn (2) codc: V_MPEG4/ISO/AVC -> H264/AVC (22) reso: 712x364 (712x401) -> Unknown (aka not common) anamorphic fram: 23.976 fps rate: 1702 kbps (1702.09) dura: 01:14:29 (4468.84) size: 906.75 MB (950797296) Track #2: audio ([Original]) lang: jpn -> Japanese (2) codc: A_AC3 -> AC3 (2) chan: 2 -> Stereo samp: 48000 Hz rate: 192 kbps (192.04) dura: 01:14:29 (4468.77) size: 102.30 MB (107272208) Sizes: (check sanity) disk: 0.99 GB (1059004426) trac: 0.99 GB (1058069504) [based on track size] bitr: 0.99 GB (1058071041) [based on bitrate] tdif: 913.01 KB (934922) 0.08% bdif: 911.51 KB (933384) 0.08%
</div>
</div>
1. Зарождение
...1010510
- лучше качество видео https://slowpics.org/comparison/9c16005d-d8ef-4d1c-92a8-adb1b1f4ab07

В данном релизе озвучка и субтитры выложены внешними файлами.
Для просмотра на ПК

с озвучкой: переместите mka файлы из папки "Rus Sound -> [Команда/ники дабберов]" и ass файлы из папки "Rus Subs -> [Команда/ники сабберов] Надписи" (по желанию) в папку с видео.
с субтитрами: переместите ass файлы из папки "Rus Subs -> [Команда/ники сабберов] Полные" в папку с видео.

90% современных плееров подключат дорожки автоматически. Так же рекомендуется указать rus и(ли) ru, как язык по умолчанию для выбора дорожек, в настройках вашего плеера и(ли) рендера. Подробнее о настройке плеера можно прочитать тут.
Если релиз содержит 10 битное видео, и у вас проблемы с качеством картинки, инструкцию по просмотру можно найти тут.
Все видео файлы в моих релизах пересобираются. Вы не сможете раздавать их на других раздачах.
Если в релизе есть раздел "Порядок просмотра":

Скачайте все части тайтла.
Поместите все раздачи (видео и необходимые дорожки) в одну папку.
Все сезоны и серии будут в необходимом порядке для просмотра.


Трекер:  [ 25-Июл-2018 15:30 ]

  

Скачать .torrent

Размер .torrent файла 40 KB


Размер: 1010 MB
Хэш (hash) релиза: 50cd85111258d926ae4e772a3879f7f98d1fabb2
Подписка на обновления:

Еще никто не оставлял запись к записи скачать торрент Вандред: Зарождение . Будь первым!

!Обратная связь