Скачать через торрент Вандред бесплатно Аниме Все серии на русском torrent

Статистика раздачи
Размер:  4.24 GB   |    Зарегистрирован:  4 месяца 17 дней   |    .torrent скачан:  49 раз   |   
Раздают:  1  
   
загрузка...
 
Автор Сообщение

Galfimbul

avatar Galfimbul



Страна: Япония
Год выпуска: 2000
Жанр: фантастика, комедия, меха
Тип: TV
Продолжительность: 13 эп, ~24 мин серия
Режиссер: Мори Такэси
Студия: Gonzo Digimation

Субтитры:
1: полные/надписи MC Entertainment

Озвучка:
1: многоголосая MC Entertainment
Порядок просмотра:
1: Vandread TV 1 - эта раздача
2: Vandread OVA 1
3: Vandread TV 2
4: Vandread OVA 2
Информационные ссылки: MAL | World Art | AniDB
Описание: Женщины - чудовища! Многие поколения мужчин планеты Тарак героически сражались с яростным врагом - женщинами с планеты Меджеру. Хибики сначала попадает "зайцем" на боевой звездолет, а потом оказывается пленником женщин, в руки которых попадает корабль! Благодаря еще более необычному повороту событий звездолет отброшен в удаленный уголок галактики, где женщины и их заложники встречают нового врага - и объединяются перед лицом общей угрозы. Неужели мужчины и женщины смогут сражаться бок о бок вместо того, чтобы уничтожать друг друга?

© (World Art)
Качество: DVDRip
Тип видео: Без хардсаба, Без линковки
Автор рипа: AMBROZI1
Формат видео: MKV
Главы: присутствуют
Совместимость с бытовыми плеерами: нет
Видео: х264, 8 bit, 704x400, ~1183 kbps, 23.976 fps
Аудио JAP: AC3, 384 kbps, 48.0 kHz, 5.1 ch (в составе контейнера)
Аудио RUS (1): AC3, 384 kbps, 48.0 kHz, 5.1 ch (внешними файлами)
Субтитры RUS (1): ASS (внешними файлами)
<div class="sp-wrap">
<div class="sp-head folded">Media Info</div>
<div class="sp-body">

GeneralUnique ID : 177220170287256708565831458648552991255 (0x85535CFF4CB4E0F2EEE7A7180AA16A17)Complete name : E:\Раздачи\Vandread TV 1\[01] Vandread TV 1 01 серия.mkvFormat : MatroskaFormat version : Version 4 / Version 2File size : 269 MiBDuration : 23 min 56 sOverall bit rate : 1 569 kb/sMovie name : Vandread TV 1 01 серияEncoded date : UTC 2018-07-21 09:52:23Writing application : mkvmerge v25.0.0 ('Prog Noir') 64-bitWriting library : libebml v1.3.6 + libmatroska v1.4.9

VideoID : 1Format : AVCFormat/Info : Advanced Video CodecFormat profile : High@L5.1Format settings : CABAC / 16 Ref FramesFormat settings, CABAC : YesFormat settings, ReFrames : 16 framesCodec ID : V_MPEG4/ISO/AVCDuration : 23 min 56 sBit rate : 1 183 kb/sWidth : 704 pixelsHeight : 400 pixelsDisplay aspect ratio : 16:9Frame rate mode : ConstantFrame rate : 23.976 (24000/1001) FPSColor space : YUVChroma subsampling : 4:2:0Bit depth : 8 bitsScan type : ProgressiveBits/(Pixel*Frame) : 0.175Stream size : 197 MiB (74%)Title : [AMBROZI1]Writing library : x264 core 56 svn-667CEncoding settings : cabac=1 / ref=16 / deblock=1:-2:-1 / analyse=0x3:0x133 / me=umh / subme=6 / brdo=1 / mixed_ref=1 / me_range=16 / chroma_me=1 / trellis=2 / 8x8dct=1 / cqm=0 / deadzone=21,11 / chroma_qp_offset=0 / threads=1 / nr=0 / decimate=0 / mbaff=0 / bframes=3 / b_pyramid=1 / b_adapt=1 / b_bias=0 / direct=3 / wpredb=1 / bime=1 / keyint=250 / keyint_min=25 / scenecut=40 / rc=2pass / bitrate=1183 / ratetol=1.0 / rceq='blurCplx^(1-qComp)' / qcomp=0.60 / qpmin=10 / qpmax=51 / qpstep=4 / cplxblur=20.0 / qblur=0.5 / ip_ratio=1.40 / pb_ratio=1.30Language : JapaneseDefault : YesForced : No

AudioID : 2Format : AC-3Format/Info : Audio Coding 3Codec ID : A_AC3Duration : 23 min 56 sBit rate mode : ConstantBit rate : 384 kb/sChannel(s) : 6 channelsChannel positions : Front: L C R, Side: L R, LFESampling rate : 48.0 kHzFrame rate : 31.250 FPS (1536 SPF)Bit depth : 16 bitsCompression mode : LossyStream size : 65.7 MiB (24%)Title : [Original]Language : JapaneseService kind : Complete MainDefault : YesForced : No

Menu00:00:00.000 : ru:Опенинг00:01:25.502 : ru:Часть А00:12:40.927 : ru:Часть Б00:22:25.511 : ru:Эндинг
File: E:\Раздачи\Vandread TV 1\[01] Vandread TV 1 01 серия.mkv Duration: 00:23:56 (1436.1) Track #1: video ([AMBROZI1]) lang: jpn (2) codc: V_MPEG4/ISO/AVC -> H264/AVC (22) reso: 704x400 -> 16:9 fram: 23.976 fps rate: 1183 kbps (1183.14) dura: 00:23:56 (1436.06) size: 202.54 MB (212383196) Track #2: audio ([Original]) lang: jpn -> Japanese (2) codc: A_AC3 -> AC3 (2) chan: 6 -> 5.1 Surround samp: 48000 Hz rate: 384 kbps (384.09) dura: 00:23:56 (1435.68) size: 65.74 MB (68929141) Sizes: (check sanity) disk: 268.57 MB (281613179) trac: 268.28 MB (281312337) [based on track size] bitr: 268.30 MB (281330511) [based on bitrate] tdif: 293.79 KB (300842) 0.10% bdif: 276.04 KB (282667) 0.10%
</div>
</div>
01. Мальчик встречает девочку
02. И... Я совсем запутался!
03. Я выбрал себе путь
04. Хочу познакомиться с тобой поближе
05. Сладкое искушение
06. Как прекрасен этот мир!
07. Беспечная жизнь
08. Это невозможно!
09. Опаснее, чем небеса
10. Невинная любовь
11. Вместе...
12. Им на нас плевать
13. Огонь!
...60883
- наличие озвучки, не пак

...354053
- отсутствуют исполняемые файлы в раздаче, релиз собран в соответствии с положением об "универсальном релизе", не пак

В данном релизе озвучка и субтитры выложены внешними файлами.
Для просмотра на ПК

с озвучкой: переместите mka файлы из папки "Rus Sound -> [Команда/ники дабберов]" и ass файлы из папки "Rus Subs -> [Команда/ники сабберов] Надписи" (по желанию) в папку с видео.
с субтитрами: переместите ass файлы из папки "Rus Subs -> [Команда/ники сабберов] Полные" в папку с видео.

90% современных плееров подключат дорожки автоматически. Так же рекомендуется указать rus и(ли) ru, как язык по умолчанию для выбора дорожек, в настройках вашего плеера и(ли) рендера. Подробнее о настройке плеера можно прочитать тут.
Если релиз содержит 10 битное видео, и у вас проблемы с качеством картинки, инструкцию по просмотру можно найти тут.
Все видео файлы в моих релизах пересобираются. Вы не сможете раздавать их на других раздачах.
Если в релизе есть раздел "Порядок просмотра":

Скачайте все части тайтла.
Поместите все раздачи (видео и необходимые дорожки) в одну папку.
Все сезоны и серии будут в необходимом порядке для просмотра.


Трекер:  [ 25-Июл-2018 15:30 ]

  

Скачать .torrent

Размер .torrent файла 31 KB


Размер: 4.24 GB
Хэш (hash) релиза: 56ee165050aee31d3bf83fcdc816631eea42f330
Подписка на обновления:

Торренты, похожие на Вандред скачать торрент

Форум Название Автор Размер S L Добавлен
Аниме | DVD ·· Вандред/Вандред: Второй уровень / Vandread Stage One/Vandread: The Second Stage [TV] [1-26 из 26] [RUS,JAP+SUB] [2000 г., фантастика, меха, комедия, сёнэн, 6DVD9] [Любительская] Galfimbul 4226979575239.37 GB 0 0 1310318605

20:23

10-Июл-11

Аниме | Rips ·%· Вандред: Зарождение (ОВА-1) / Vandread Taidouhen / Vandread Taidou-hen [OVA] [1 из 1] [Без хардсаба] [JAP, SUB] [2001, фантастика, комедия, меха, DVDRip] Galfimbul 10593142771010 MB 0 0 1532521830

15:30

25-Июл-18

Аниме | Rips ·%· Вандред: Второй Уровень (ТВ-2) / Vandread The Second Stage [TV] [13 из 13] [Без хардсаба] [RUS(ext), JAP, SUB] [2001, фантастика, комедия, меха, DVDRip] Galfimbul 45774639054.26 GB 0 0 1532521820

15:30

25-Июл-18

Аниме | Rips ·%· Вандред: Завихрения (ОВА-2) / Vandread Gekitouhen [OVA] [1 из 1] [Без хардсаба] [JAP, SUB] [2002, фантастика, комедия, меха, DVDRip] Galfimbul 13493912571.26 GB 0 0 1532521810

15:30

25-Июл-18

Аниме | Rips ·· Вандред: Второй уровень / Vandread: Second Stage [TV] [1-13 из 13] [RUS(int), JAP, SUB] [2001 г., фантастика, меха, комедия, сёнэн, DVDRip][любительская] L 44388292044.13 GB 0 0 1310370255

10:44

11-Июл-11

Аниме | Rips ·· Вандред / Vandread Stage One [TV] [1-13 из 13] [RUS(int), JAP, SUB] [2000 г., фантастика, меха, комедия, сёнэн, DVDRip][профессиональная] L 42966609764 GB 0 0 1310369833

10:37

11-Июл-11

Еще никто не оставлял запись к записи скачать торрент Вандред . Будь первым!

!Обратная связь