Скачать через торрент Синий трактор Синий трактор Фильм бесплатно в хорошем качестве torrent

Скачивайте на UnionPeer.org фильмы через торрент без регистрации. Новинки кино в хорошем качестве через торрент. На UnionPeer.org можно скачать через торрент фильмы 2014 и 2015 годов. Самые новые фильмы.

Скачать торрент Синий трактор Синий трактор бесплатно через .torrent фильм мультфильм сериал

Статистика раздачи
Размер:  1.3 GB   |    Зарегистрирован:  4 месяца 23 дня   |    .torrent скачан:  49 раз   |   
Раздают:  1  
   
загрузка...
 
Автор Сообщение

Galfimbul

avatar Galfimbul


Синий трактор / Синий трактор

Страна: Россия
Жанр: рисованный, детский, обучающий, познавательный
Продолжительность серии: 00:05:00
Год выпуска: 2014 - н.в.
Перевод: Не требуется
Русские субтитры: нет

Режиссёр: Артур Днепровский
Описание: Синий трактор Гоша рассказывает малышам интересные истории и учит их новому. Дети научится считать, узнают цвета и о том, как работают различные машины. А также споют весёлые песенки!

Доп. информация: Все серии взяты с официального канала СИНИЙ ТРАКТОР - Детские песенки и мультикиРаздача ведется добавлением новых серий
Качество: WEB-DL 1080p
Формат: MP4
Видео: 1920x1080 (1,78:1), 25 fps, avc1 ~2487 kbps avg, 0.048 Bits/(Pixel*Frame)
Аудио: 44.1 kHz, AAC, 2.0 (L,R) ch, ~126 kbps avg
Субтитры: отсутствуют
01. Алфавит.mp4
02. Птички.mp4
03. Фрукты.mp4
04. Лево-право.mp4
05. Совушка.mp4
06. Колыбельная - Совушка.mp4
07. Едет трактор.mp4
08. Машинка.mp4
09. Птички 2.mp4
10. Дед Мороз.mp4
11. Дед Мороз 2.mp4
12. Не щипай.mp4
13. Не щипай 2.mp4
14. Машинки.mp4
15. Далеко и близко.mp4
16. Овощи.mp4
17. Экскаватор.mp4
18. Птичка (сказка 1).mp4
19. Грузовик и бульдозер (сказка 2).mp4
20. Синий трактор.mp4
21. Ракета.mp4
22. Сутки.mp4
23. Что ты делал, синий трактор.mp4
24. Счёт.mp4
25. Горшок.mp4
26. Мусоровоз.mp4
Полное имя : 13. Не щипай 2.mp4Формат : MPEG-4Профиль формата : Base MediaИдентификатор кодека : isom (isom/iso2/avc1/mp41)Размер файла : 217 МбайтПродолжительность : 11 м. 35 с.Общий поток : 2618 Кбит/секПрограмма кодирования : Lavf57.2.100

Идентификатор : 1Формат : AVCФормат/Информация : Advanced Video CodecПрофиль формата : High@L4Настройки формата : CABAC / 3 Ref FramesПараметр CABAC формата : ДаПараметр RefFrames формата : 3 кадраИдентификатор кодека : avc1Идентификатор кодека/Информация : Advanced Video CodingПродолжительность : 11 м. 35 с.Битрейт : 2487 Кбит/секШирина : 1920 пикселейВысота : 1080 пикселейСоотношение сторон : 16:9Режим частоты кадров : ПостоянныйЧастота кадров : 25,000 кадров/секЦветовое пространство : YUVСубдискретизация насыщенности : 4:2:0Битовая глубина : 8 битТип развёртки : ПрогрессивнаяБит/(Пиксели*Кадры) : 0.048Размер потока : 206 Мбайт (95%)Цветовой диапазон : LimitedОсновные цвета : BT.709Характеристики трансфера : BT.709Коэффициенты матрицы : BT.709

Идентификатор : 2Формат : AACФормат/Информация : Advanced Audio CodecПрофиль формата : LCИдентификатор кодека : mp4a-40-2Продолжительность : 11 м. 35 с.Вид битрейта : ПостоянныйБитрейт : 126 Кбит/секКаналы : 2 каналаРасположение каналов : Front: L RЧастота : 44,1 КГцЧастота кадров : 43,066 кадра/сек (1024 SPF)Метод сжатия : С потерямиРазмер потока : 10,4 Мбайт (5%)Default : ДаAlternateGroup/String : 1
Предыдущие и альтернативные раздачи

Трекер:  [ 25-Июл-2018 15:54 ]

  

Скачать .torrent

Размер .torrent файла 54 KB


Размер: 1.3 GB
Хэш (hash) релиза: 5db955eaf13496c63e2b7ba36051395c2479684b
Подписка на обновления:

Еще никто не оставлял запись к записи скачать торрент Синий трактор Синий трактор . Будь первым!

!Обратная связь