Скачать через торрент [VIDEO] Закусочная на колесах Wheels on Meals бесплатно русская версия torrent активатор

Статистика раздачи
Размер:  491 MB   |    Зарегистрирован:  4 месяца 18 дней   |    .torrent скачан:  15 раз   |   
Раздают:  1  
   
загрузка...
 
Автор Сообщение

Galfimbul

avatar Galfimbul


Закусочная на колесах / Wheels on Meals / Kuai can che

Год выпуска: 1984
Страна: Гонконг, Испания
Жанр: боевик, драма, криминал
Продолжительность: 01:48:32
Перевод: русский Профессиональный (многоголосый, закадровый) UniDigital
Субтитры: нет
Режиссер: Саммо Хунг / Sammo Hung
В ролях: Джеки Чан, Саммо Хунг, Юэнь Бяо, Лола Форнер, Бенни Уркидез, Кит Витали, Херб Эдельман, Сюзанна Сэнтис, Мерседес Альберт и другие .
Описание: Два энергичных китайца организовали в Барселоне передвижную харчевню. Их желтый фургончик дарит людям вкусную еду и очаровательный китайско — испанский сервис. Но однажды всю их выручку похищает хитрая Синьорита Сильвия.
Масса самых забавных ситуаций, сумасшедшие гонки на автокухне, виртуозные сцены рукопашных поединков и, как всегда, полный задора и отточенности в движениях Джеки Чан!

Релиз группы

Качество: HDRip / рип с BDRip 1080p
Формат: MP4
Видео кодек: XviD
Аудио кодек: AAC
Видео: 480x256 AR:1.88 500 kbps 23.976 fps
Аудио: [Russian] 2ch 48 kHz 128 kbps - [MVO] Профессиональный (многоголосый, закадровый) UniDigital
GeneralComplete name : K:\Torrents\Wheels on Meals.1984.HDRip.XviD.480x.rip by Frost O.S.mp4Format : MPEG-4Format profile : 3GPP Media Release 5Codec ID : 3gp5 (isom/3gp5/3gp4/mp41/mp42)File size : 491 MiBDuration : 1 h 48 minOverall bit rate mode : VariableOverall bit rate : 632 kb/sEncoded date : UTC 2018-07-25 12:57:17Tagged date : UTC 2018-07-25 12:57:17

VideoID : 1Format : MPEG-4 VisualFormat profile : Advanced Simple@L5Format settings : BVOP / Custom MatrixFormat settings, BVOP : YesFormat settings, QPel : NoFormat settings, GMC : No warppointsFormat settings, Matrix : CustomCodec ID : mp4v-20Duration : 1 h 48 minBit rate mode : VariableBit rate : 500 kb/sMaximum bit rate : 2 159 kb/sWidth : 480 pixelsHeight : 256 pixelsDisplay aspect ratio : 1.85:1Frame rate mode : ConstantFrame rate : 23.976 (24000/1001) FPSColor space : YUVChroma subsampling : 4:2:0Bit depth : 8 bitsScan type : ProgressiveCompression mode : LossyBits/(Pixel*Frame) : 0.170Stream size : 388 MiB (79%)Title : avi@GPAC0.5.2-DEV-rev248-g39d5978-masterWriting library : XviD 1.2.1 (UTC 2008-12-04)Encoded date : UTC 2018-07-25 10:29:40Tagged date : UTC 2018-07-25 12:57:20

AudioID : 2Format : AACFormat/Info : Advanced Audio CodecFormat profile : LCCodec ID : mp4a-40-2Duration : 1 h 48 minBit rate mode : VariableBit rate : 128 kb/sMaximum bit rate : 133 kb/sChannel(s) : 2 channelsChannel positions : Front: L RSampling rate : 48.0 kHzFrame rate : 46.875 FPS (1024 SPF)Compression mode : LossyStream size : 99.3 MiB (20%)Title : Russian / MVO, UniDigitalEncoded date : UTC 2018-07-25 12:05:29Tagged date : UTC 2018-07-25 12:57:20


Трекер:  [ 25-Июл-2018 16:36 ]

  

Скачать .torrent

Размер .torrent файла 19 KB


Размер: 491 MB
Хэш (hash) релиза: e7c739807ec744a015e35fa2bf4f713395442bea

Еще никто не оставлял запись к записи скачать торрент [VIDEO] Закусочная на колесах Wheels on Meals . Будь первым!

!Обратная связь