Скачать через торрент Мобильный доспех Гандам: Начало Mobile Suit Gundam: The Origin бесплатно Аниме Все серии на русском torrent

Статистика раздачи
Размер:  12.88 GB   |    Зарегистрирован:  4 месяца 17 дней   |    .torrent скачан:  30 раз   |   
Раздают:  1  
   
загрузка...
 
Автор Сообщение

Galfimbul

avatar Galfimbul


Мобильный доспех Гандам: Начало / Mobile Suit Gundam: The Origin / Kido Senshi Gundam: The Origin

Страна: Япония
Год выпуска: 2015 г.
Жанр: приключения, фантастика, меха
Тип: OVA
Продолжительность: 6 эпизода по ~65 мин. серия
Режиссер: Иманиси Такаси
Студия: Sunrise / サンライズ
Перевод на русский ОВА 1-4: AlexVector, ретайминг субтитров Натан
Перевод на русский ОВА 5-6: 2nd Division, ретайминг субтитров Натан
Озвучка двухголосая: ShinkaDan (Sempl): Azazel (муж.) & Mai (жен.) (двухголосая)
Работа со звуком: Виктор Нуштаев

Описание: В данном четырёх эпизоднике вас ждёт рассказ истории становления Касвала Рема Дейкуна и Артесии Сомы Дейкун перед однолетней войной в UC.0068. Дворцовые интриги и судьба несчастных детей лишившихся из за них отца. Смогут ли они выжить в этой войне Домов или же их постигнет судьба собственного отца? Это вы узнаете в этих без сомнения интереснейших овашках!
(c) Azazel & Nighteon

Качество: BDRip
Тип релиза: Без хардсаба
Формат видео: MKV
Релиз/Автор рипа: Omar
Совместимость с бытовыми плеерами: Нет
Видео: x264 (10 bits), 1280x720, 23.976 fps, 2 102 Kbps
Аудио: AC3, 640 kbps, 48000 Hz, 6 ch Язык Русский (в составе контейнера) ; Озвучка двухголосая: Azazel (муж.) & Mai (жен.)
Аудио 2: DTS, 755 kbps, 48000 Hz, 6 ch Язык Японский
Субтитры: ASS, встроенные - надписи Язык субтитров русский ; ОВА с 1-4 Перевод: AlexVector, ОВА с 5-6 Перевод: 2nd Division
Субтитры 2: ASS, встроенные - полные Язык субтитров русский ; ОВА с 1-4 Перевод 2: AlexVector, ОВА с 5-6 Перевод: 2nd Division
ОбщееУникальный идентификатор : 235960831187626956291118846733131730003 (0xB184672E32AED286834A55C2ED344C53)Полное имя : L:\downloads\[ShinkaDan] Mobile Suit Gundam The Origin [Azazel & Mai]\[ShinkaDan] Mobile Suit Gundam The Origin OVA 01 [BDrip 1280x720p H264 AC3] [Azazel & Mai].mkvФормат : MatroskaВерсия формата : Version 4 / Version 2Размер файла : 1,57 ГбайтПродолжительность : 1 ч. 2 м.Общий поток : 3567 Кбит/секДата кодирования : UTC 2016-03-20 21:36:32Программа кодирования : mkvmerge v8.2.0 ('World of Adventure') 64bitБиблиотека кодирования : libebml v1.3.1 + libmatroska v1.4.2DURATION : 00:59:17.590000000NUMBER_OF_FRAMES : 979NUMBER_OF_BYTES : 72320_STATISTICS_WRITING_APP : mkvmerge v8.2.0 ('World of Adventure') 64bit_STATISTICS_WRITING_DATE_UTC : 2016-03-20 21:36:32_STATISTICS_TAGS : BPS DURATION NUMBER_OF_FRAMES NUMBER_OF_BYTES

ВидеоИдентификатор : 1Формат : AVCФормат/Информация : Advanced Video CodecПрофиль формата : High 10@L5Параметр CABAC формата : ДаПараметр ReFrames формата : 16 кадровИдентификатор кодека : V_MPEG4/ISO/AVCПродолжительность : 1 ч. 2 м.Битрейт : 2102 Кбит/секШирина : 1280 пикселейВысота : 720 пикселейСоотношение сторон : 16:9Режим частоты кадров : ПостоянныйЧастота кадров : 23,976 кадра/секЦветовое пространство : YUVСубдискретизация насыщенности : 4:2:0Битовая глубина : 10 битТип развёртки : ПрогрессивнаяБит/(Пиксели*Кадры) : 0.095Размер потока : 947 Мбайт (59%)Заголовок : BDrip AnimeLandБиблиотека кодирования : x264 core 133 r2334 a3ac64bНастройки программы : cabac=1 / ref=16 / deblock=1:-1:-1 / analyse=0x3:0x133 / me=umh / subme=10 / psy=1 / psy_rd=1.00:0.00 / mixed_ref=1 / me_range=24 / chroma_me=1 / trellis=2 / 8x8dct=1 / cqm=0 / deadzone=21,11 / fast_pskip=0 / chroma_qp_offset=-2 / threads=12 / lookahead_threads=3 / sliced_threads=0 / nr=0 / decimate=1 / interlaced=0 / bluray_compat=0 / constrained_intra=0 / bframes=10 / b_pyramid=2 / b_adapt=2 / b_bias=0 / direct=3 / weightb=1 / open_gop=0 / weightp=2 / keyint=250 / keyint_min=23 / scenecut=40 / intra_refresh=0 / rc_lookahead=60 / rc=crf / mbtree=1 / crf=15.0 / qcomp=0.60 / qpmin=0 / qpmax=81 / qpstep=4 / ip_ratio=1.40 / aq=2:1.00Язык : JapaneseDefault : ДаForced : Да

Аудио #1Идентификатор : 2Формат : AC-3Формат/Информация : Audio Coding 3Расширение режима : CM (complete main)Параметр Endianness формата : BigИдентификатор кодека : A_AC3Продолжительность : 1 ч. 2 м.Вид битрейта : ПостоянныйБитрейт : 640 Кбит/секКаналы : 6 каналовРасположение каналов : Front: L C R, Side: L R, LFEЧастота : 48,0 КГцМетод сжатия : С потерямиРазмер потока : 288 Мбайт (18%)Заголовок : Azazel & MaiЯзык : RussianDefault : ДаForced : Да

Аудио #2Идентификатор : 3Формат : DTSФормат/Информация : Digital Theater SystemsРежим : 16Параметр Endianness формата : BigИдентификатор кодека : A_DTSПродолжительность : 1 ч. 2 м.Вид битрейта : ПостоянныйБитрейт : 755 Кбит/секКаналы : 6 каналовРасположение каналов : Front: L C R, Side: L R, LFEЧастота : 48,0 КГцБитовая глубина : 24 битМетод сжатия : С потерямиРазмер потока : 340 Мбайт (21%)Заголовок : OriginalЯзык : JapaneseDefault : НетForced : Нет

Текст #1Идентификатор : 4Формат : ASSИдентификатор кодека : S_TEXT/ASSИдентификатор кодека/Информация : Advanced Sub Station AlphaМетод сжатия : Без потерьЗаголовок : Надписи - AlexVectorЯзык : RussianDefault : ДаForced : Да

Текст #2Идентификатор : 5Формат : ASSИдентификатор кодека : S_TEXT/ASSИдентификатор кодека/Информация : Advanced Sub Station AlphaМетод сжатия : Без потерьЗаголовок : Полные - AlexVectorЯзык : RussianDefault : НетForced : Нет
1. Начало I
2. Начало II
3. Рассвет восстания
4. Начало IV
5. Начало V
6. Начало VI


Трекер:  [ 25-Июл-2018 17:01 ]

  

Скачать .torrent

Размер .torrent файла 65 KB


Размер: 12.88 GB
Хэш (hash) релиза: 7eb48b1ad718ea1026a0d7e1ecedb045abe98b64
Подписка на обновления:

Еще никто не оставлял запись к записи скачать торрент Мобильный доспех Гандам: Начало Mobile Suit Gundam: The Origin . Будь первым!

!Обратная связь