Скачать через торрент Беар Гриллс против акул Bear vs. Shark Фильм бесплатно в хорошем качестве torrent

Скачивайте на UnionPeer.org фильмы через торрент без регистрации. Новинки кино в хорошем качестве через торрент. На UnionPeer.org можно скачать через торрент фильмы 2014 и 2015 годов. Самые новые фильмы.

Скачать торрент Беар Гриллс против акул Bear vs. Shark бесплатно через .torrent фильм мультфильм сериал

Статистика раздачи
Размер:  2.17 GB   |    Зарегистрирован:  1 месяц 28 дней   |    .torrent скачан:  26 раз   |   
Раздают:  1  
   
загрузка...
 
Автор Сообщение

Galfimbul

avatar Galfimbul


Беар Гриллс против акул / Bear vs. Shark

Год выпуска: 2018
Страна: Великобритания
Студия: Bear Grylls Ventures
Жанр: Документальный, познавательный, природа, путешествия, экстрим
Продолжительность: 00:43:53
Перевод: Профессиональный (многоголосый закадровый), студия Кипарис
Русские субтитры: нет

Режиссер: Беар Гриллс, Крис Грант / Bear Grylls, Chris Grant

Описание: Беару Гриллсу приходилось выживать в раскаленных пустынях, непроходимых джунглях, на необитаемом острове и посреди сибирских снегов, а теперь он отправляется в Бермудский треугольник! Но эксперта-экстремала интересуют вовсе не тайны затонувших кораблей и пропавших самолетов - в этих водах акулы чувствуют себя как дома, и он намерен встретиться с ними лицом к лицу! Беару придется пройти запредельный тест на выживание и применить навыки, наработанные за долгие годы. Одновременно он будет давать советы зрителям и на собственном примере показывать, как себя вести при столкновении с акулой. Погрузитесь вместе с Беаром на морское дно и взгляните в глаза опаснейшим существам нашей планеты!

Для ознакомления с качеством посмотрите Сэмпл

Тип релиза: HDTVRip 1080p
Контейнер: MKV

Видео: MPEG4 Video (H264), 1920x1080, 25.000 fps, 8 bits, 7 007 Kbps
Аудио: AC-3, 48KHz, 5.1 (6 channels), 384 kbps
GeneralUnique ID : 101845061338268098568730789218626618164 (0x4C9EA5347939484266A1F898E10CC334)Complete name : C:\Users\SERVER\Desktop\Беар против акул - Bear vs Shark.mkvFormat : MatroskaFormat version : Version 4 / Version 2File size : 2.17 GiBDuration : 43mn 53sOverall bit rate : 7 081 KbpsEncoded date : UTC 2018-07-24 06:48:23Writing application : mkvmerge v21.0.0 ('Tardigrades Will Inherit The Earth') 64-bitWriting library : libebml v1.3.5 + libmatroska v1.4.8DURATION : 00:43:53.752000000NUMBER_OF_FRAMES : 82304NUMBER_OF_BYTES : 126418944_STATISTICS_WRITING_APP : mkvmerge v21.0.0 ('Tardigrades Will Inherit The Earth') 64-bit_STATISTICS_WRITING_DATE_UTC : 2018-07-24 06:48:23_STATISTICS_TAGS : BPS DURATION NUMBER_OF_FRAMES NUMBER_OF_BYTES

VideoID : 1Format : AVCFormat/Info : Advanced Video CodecFormat profile : High@L4.0Format settings, CABAC : YesFormat settings, ReFrames : 4 framesCodec ID : V_MPEG4/ISO/AVCDuration : 43mn 53sBit rate : 6 556 KbpsWidth : 1 920 pixelsHeight : 1 080 pixelsDisplay aspect ratio : 16:9Frame rate mode : ConstantFrame rate : 25.000 fpsStandard : ComponentColor space : YUVChroma subsampling : 4:2:0Bit depth : 8 bitsScan type : InterlacedScan order : Top Field FirstBits/(Pixel*Frame) : 0.126Stream size : 2.01 GiB (93%)Default : YesForced : NoColor primaries : BT.709Transfer characteristics : BT.709Matrix coefficients : BT.709

AudioID : 2Format : AC-3Format/Info : Audio Coding 3Mode extension : CM (complete main)Format settings, Endianness : BigCodec ID : A_AC3Duration : 43mn 53sBit rate mode : ConstantBit rate : 384 KbpsChannel(s) : 6 channelsChannel positions : Front: L C R, Side: L R, LFESampling rate : 48.0 KHzBit depth : 16 bitsCompression mode : LossyStream size : 121 MiB (5%)Title : RuLanguage : RussianDefault : YesForced : No


Трекер:  [ 25-Июл-2018 17:06 ]

  

Скачать .torrent

Размер .torrent файла 11 KB


Размер: 2.17 GB
Хэш (hash) релиза: 998e1754f2ef79ce9ce3c0a89716725ca795edd0
Подписка на обновления:

Еще никто не оставлял запись к записи скачать торрент Беар Гриллс против акул Bear vs. Shark . Будь первым!

!Обратная связь