Скачать через торрент музыку Boogiepop Phantom Бугипоп никогда не смеётся - 2000 г., FLAC бесплатно без регистрации torrent

Статистика раздачи
Размер:  799 MB   |    Зарегистрирован:  7 месяцев   |    .torrent скачан:  75 раз   |   
Раздают:  1  
   
загрузка...
 
Автор Сообщение

Galfimbul

avatar Galfimbul


Бугипоп никогда не смеётсям
Общие характеристики:
Производство:
Год выпуска: 2000
Формат:
Частота: 44100Гц
Продолжительность: 26 треков - 2:15:25
Альбомы:
<div class="sp-wrap">
<div class="sp-head folded">2000 - Die Meistersinger Von Nurnberg [MNCM-2001]</div>
<div class="sp-body">
Список треков:
Продолжительность: 9:56

01. Die Meistersinger Von Nurnberg - Boogiepop Version [8:52]
02. Die Meistersinger Von Nurnberg - Whistle Version [1:04]
Official DR value: DR8
Проверка:
<div class="post-box-default">
<div class="post-box">
<div class="sp-wrap">
<div class="sp-head folded">Открыть</div>
<div class="sp-body">
<div class="sp-wrap">
<div class="sp-head folded">ЕАС Лог</div>
<div class="sp-body">

Exact Audio Copy V1.3 from 2. September 2016

EAC extraction logfile from 30. June 2018, 17:22

Media Works / Die Meistersinger Von Nurnberg - Boogiepop Version

Used drive : PLEXTOR CD-R PREMIUM2 Adapter: 1 ID: 0

Read mode : SecureUtilize accurate stream : YesDefeat audio cache : YesMake use of C2 pointers : No

Read offset correction : 30Overread into Lead-In and Lead-Out : YesFill up missing offset samples with silence : YesDelete leading and trailing silent blocks : NoNull samples used in CRC calculations : YesUsed interface : Native Win32 interface for Win NT & 2000Gap handling : Not detected, thus appended to previous track

Used output format : User Defined EncoderSelected bitrate : 1024 kBit/sQuality : HighAdd ID3 tag : NoCommand line compressor : C:\Program Files (x86)\Exact Audio Copy\Flac\flac.exeAdditional command line options : -V -8 -T "Genre=%genre%" -T "Artist=%artist%" -T "Title=%title%" -T "Album=%albumtitle%" -T "Date=%year%" -T "Tracknumber=%tracknr%" -T "Comment=%comment%" %source%

TOC of the extracted CD

Track | Start | Length | Start sector | End sector --------------------------------------------------------- 1 | 0:00.00 | 8:52.37 | 0 | 39936 2 | 8:52.37 | 1:03.64 | 39937 | 44725

Track 1

Filename F:\Work\RIPs\01 - Die Meistersinger Von Nurnberg - Boogiepop Version.wav

Peak level 100.0 % Extraction speed 2.4 X Track quality 99.9 % Test CRC 2F061596 Copy CRC 2F061596 Accurately ripped (confidence 2) [92B86085] (AR v2) Copy OK

Track 2

Filename F:\Work\RIPs\02 - Die Meistersinger Von Nurnberg - Whistle Version.wav

Peak level 21.6 % Extraction speed 1.7 X Track quality 100.0 % Test CRC BE2891DB Copy CRC BE2891DB Accurately ripped (confidence 2) [B8E7AE94] (AR v2) Copy OK

All tracks accurately ripped

No errors occurred

End of status report

---- CUETools DB Plugin V2.1.6

[CTDB TOCID: o9YsAbRi3KkxOiEqQbEE4Jb9I04-] foundSubmit result: already submittedTrack | CTDB Status 1 | (2/2) Accurately ripped 2 | (2/2) Accurately ripped

==== Log checksum B8CDBEB35784059870B1C96E5552238BE6DA05B5B0EC06625C089BD7ED9BE019 ====
REM GENRE AnimeREM DATE 2000REM DISCID 0E025402REM COMMENT "ExactAudioCopy v1.3"PERFORMER "Media Works"TITLE "Die Meistersinger Von Nurnberg - Boogiepop Version"REM COMPOSER ""FILE "01 - Die Meistersinger Von Nurnberg - Boogiepop Version.wav" WAVE TRACK 01 AUDIO TITLE "Die Meistersinger Von Nurnberg - Boogiepop Version" PERFORMER "Media Works" REM COMPOSER "Richard Wagner" INDEX 01 00:00:00FILE "02 - Die Meistersinger Von Nurnberg - Whistle Version.wav" WAVE TRACK 02 AUDIO TITLE "Die Meistersinger Von Nurnberg - Whistle Version" PERFORMER "Media Works" REM COMPOSER "Richard Wagner" INDEX 01 00:00:00
</div>
</div>
</div>
</div>
</div>
</div>
[spoiler="2000 - OST [MNCA-3001]"]
<div class="post-box-default">
<div class="post-box">
<div class="sp-wrap">
<div class="sp-head folded">CD 1</div>
<div class="sp-body">CD 1
Список треков:
Продолжительность: 41:21

01. Happy End [8:16]
02. In Heaven [7:17]
03. Penalty Taker [7:06]
04. Gataway [5:11]
05. Delirious [4:26]
06. Stormy Soup [9:05]
Official DR value: DR8
Проверка:
<div class="post-box-default">
<div class="post-box">
<div class="sp-wrap">
<div class="sp-head folded">Открыть</div>
<div class="sp-body">
<div class="sp-wrap">
<div class="sp-head folded">ЕАС Лог</div>
<div class="sp-body">

Exact Audio Copy V1.3 from 2. September 2016

EAC extraction logfile from 30. June 2018, 20:24

- / Boogiepop Phantom - OST 1

Used drive : PLEXTOR CD-R PREMIUM2 Adapter: 1 ID: 0

Read mode : SecureUtilize accurate stream : YesDefeat audio cache : YesMake use of C2 pointers : No

Read offset correction : 30Overread into Lead-In and Lead-Out : YesFill up missing offset samples with silence : YesDelete leading and trailing silent blocks : NoNull samples used in CRC calculations : YesUsed interface : Native Win32 interface for Win NT & 2000Gap handling : Appended to previous track

Used output format : User Defined EncoderSelected bitrate : 1024 kBit/sQuality : HighAdd ID3 tag : NoCommand line compressor : C:\Program Files (x86)\Exact Audio Copy\Flac\flac.exeAdditional command line options : -V -8 -T "Genre=%genre%" -T "Artist=%artist%" -T "Title=%title%" -T "Album=%albumtitle%" -T "Date=%year%" -T "Tracknumber=%tracknr%" -T "Comment=%comment%" %source%

TOC of the extracted CD

Track | Start | Length | Start sector | End sector --------------------------------------------------------- 1 | 0:00.00 | 8:15.42 | 0 | 37166 2 | 8:15.42 | 7:16.63 | 37167 | 69929 3 | 15:32.30 | 7:06.37 | 69930 | 101916 4 | 22:38.67 | 5:10.53 | 101917 | 125219 5 | 27:49.45 | 4:26.15 | 125220 | 145184 6 | 32:15.60 | 9:05.17 | 145185 | 186076

Track 1

Filename F:\Work\RIPs\01 - Happy End.wav

Pre-gap length 0:00:02.00

Peak level 98.8 % Extraction speed 2.5 X Track quality 100.0 % Test CRC 21D214F6 Copy CRC 21D214F6 Accurately ripped (confidence 5) [A979540B] (AR v2) Copy OK

Track 2

Filename F:\Work\RIPs\02 - In Heaven.wav

Peak level 98.8 % Extraction speed 2.5 X Track quality 100.0 % Test CRC B99C0C43 Copy CRC B99C0C43 Accurately ripped (confidence 5) [AB0B8201] (AR v2) Copy OK

Track 3

Filename F:\Work\RIPs\03 - Penalty Taker.wav

Peak level 84.2 % Extraction speed 2.5 X Track quality 100.0 % Test CRC 1BDF44C1 Copy CRC 1BDF44C1 Accurately ripped (confidence 5) [7F4F95EB] (AR v2) Copy OK

Track 4

Filename F:\Work\RIPs\04 - Gataway.wav

Peak level 98.8 % Extraction speed 2.4 X Track quality 100.0 % Test CRC 4E957A95 Copy CRC 4E957A95 Accurately ripped (confidence 5) [1E36DFF2] (AR v2) Copy OK

Track 5

Filename F:\Work\RIPs\05 - Delirious.wav

Peak level 98.8 % Extraction speed 2.4 X Track quality 100.0 % Test CRC FB8B3FA6 Copy CRC FB8B3FA6 Accurately ripped (confidence 5) [070011CD] (AR v2) Copy OK

Track 6

Filename F:\Work\RIPs\06 - Stormy Soup.wav

Peak level 98.8 % Extraction speed 2.6 X Track quality 100.0 % Test CRC 4B8BA444 Copy CRC 4B8BA444 Accurately ripped (confidence 5) [BA197C4F] (AR v2) Copy OK

All tracks accurately ripped

No errors occurred

End of status report

---- CUETools DB Plugin V2.1.6

[CTDB TOCID: XBPiqVQpTPb8zR81ePkHxFBfGB0-] foundSubmit result: already submittedTrack | CTDB Status 1 | (30/30) Accurately ripped 2 | (30/30) Accurately ripped 3 | (30/30) Accurately ripped 4 | (30/30) Accurately ripped 5 | (29/30) Accurately ripped 6 | (29/30) Accurately ripped

==== Log checksum 998B3B56EF0BA624D22A2868CDCF28298A3291D4F0B43F8437A9DF6E3BD1EAD9 ====
[/spoiler]
REM GENRE AnimeREM DATE 2000REM DISCID 5309B106REM COMMENT "ExactAudioCopy v1.3"CATALOG 0742617931024PERFORMER ""TITLE "Boogiepop Phantom - OST 1"REM COMPOSER ""FILE "01 - Happy End.wav" WAVE TRACK 01 AUDIO TITLE "Happy End" PERFORMER "Flare" REM COMPOSER "" INDEX 01 00:00:00FILE "02 - In Heaven.wav" WAVE TRACK 02 AUDIO TITLE "In Heaven" PERFORMER "SiLC" REM COMPOSER "" INDEX 01 00:00:00FILE "03 - Penalty Taker.wav" WAVE TRACK 03 AUDIO TITLE "Penalty Taker" PERFORMER "Audio Active" REM COMPOSER "" INDEX 01 00:00:00FILE "04 - Gataway.wav" WAVE TRACK 04 AUDIO TITLE "Gataway" PERFORMER "Susumu Yokota" REM COMPOSER "" INDEX 01 00:00:00FILE "05 - Delirious.wav" WAVE TRACK 05 AUDIO TITLE "Delirious" PERFORMER "SiLC feat 2k + D's of RED LINE" REM COMPOSER "" INDEX 01 00:00:00FILE "06 - Stormy Soup.wav" WAVE TRACK 06 AUDIO TITLE "Stormy Soup" PERFORMER "Aoa" REM COMPOSER "" INDEX 01 00:00:00
</div>
</div>
</div>
</div>
</div>
</div>
CD 2
Список треков:
Продолжительность: 44:53

01. Boogiepop Me Up [5:59]
02. A Furrow Dub [6:02]
03. Torso [6:11]
04. Snow Coast [9:03]
05. Unstability [5:05]
06. Pone [5:17]
07. Angel in the Dark [7:17]
Official DR value: DR9
Проверка:
<div class="post-box-default">
<div class="post-box">
<div class="sp-wrap">
<div class="sp-head folded">Открыть</div>
<div class="sp-body">
<div class="sp-wrap">
<div class="sp-head folded">ЕАС Лог</div>
<div class="sp-body">

Exact Audio Copy V1.3 from 2. September 2016

EAC extraction logfile from 30. June 2018, 21:36

- / Boogiepop Phantom - OST 1

Used drive : PLEXTOR CD-R PREMIUM2 Adapter: 1 ID: 0

Read mode : SecureUtilize accurate stream : YesDefeat audio cache : YesMake use of C2 pointers : No

Read offset correction : 30Overread into Lead-In and Lead-Out : YesFill up missing offset samples with silence : YesDelete leading and trailing silent blocks : NoNull samples used in CRC calculations : YesUsed interface : Native Win32 interface for Win NT & 2000Gap handling : Appended to previous track

Used output format : User Defined EncoderSelected bitrate : 1024 kBit/sQuality : HighAdd ID3 tag : NoCommand line compressor : C:\Program Files (x86)\Exact Audio Copy\Flac\flac.exeAdditional command line options : -V -8 -T "Genre=%genre%" -T "Artist=%artist%" -T "Title=%title%" -T "Album=%albumtitle%" -T "Date=%year%" -T "Tracknumber=%tracknr%" -T "Comment=%comment%" %source%

TOC of the extracted CD

Track | Start | Length | Start sector | End sector --------------------------------------------------------- 1 | 0:00.00 | 5:58.45 | 0 | 26894 2 | 5:58.45 | 6:02.17 | 26895 | 54061 3 | 12:00.62 | 6:10.48 | 54062 | 81859 4 | 18:11.35 | 9:03.20 | 81860 | 122604 5 | 27:14.55 | 5:05.35 | 122605 | 145514 6 | 32:20.15 | 5:16.47 | 145515 | 169261 7 | 37:36.62 | 7:16.45 | 169262 | 202006

Track 1

Filename F:\Work\RIPs\01 - Boogiepop Me Up.wav

Pre-gap length 0:00:02.00

Peak level 98.8 % Extraction speed 2.4 X Track quality 100.0 % Test CRC 386537ED Copy CRC 386537ED Accurately ripped (confidence 4) [5C15A75E] (AR v2) Copy OK

Track 2

Filename F:\Work\RIPs\02 - A Furrow Dub.wav

Peak level 98.8 % Extraction speed 2.3 X Track quality 99.9 % Test CRC 5AD0F9B3 Copy CRC 5AD0F9B3 Accurately ripped (confidence 4) [766ACA6C] (AR v2) Copy OK

Track 3

Filename F:\Work\RIPs\03 - Torso.wav

Peak level 98.8 % Extraction speed 2.5 X Track quality 100.0 % Test CRC F657695A Copy CRC F657695A Accurately ripped (confidence 4) [82856E81] (AR v2) Copy OK

Track 4

Filename F:\Work\RIPs\04 - Snow Coast.wav

Peak level 98.8 % Extraction speed 2.5 X Track quality 100.0 % Test CRC 5537EF1E Copy CRC 5537EF1E Accurately ripped (confidence 4) [C2F23628] (AR v2) Copy OK

Track 5

Filename F:\Work\RIPs\05 - Unstability.wav

Peak level 87.0 % Extraction speed 2.4 X Track quality 100.0 % Test CRC E97E62BA Copy CRC E97E62BA Accurately ripped (confidence 4) [D1CB21ED] (AR v2) Copy OK

Track 6

Filename F:\Work\RIPs\06 - Pone.wav

Peak level 98.8 % Extraction speed 2.4 X Track quality 100.0 % Test CRC 3975A055 Copy CRC 3975A055 Accurately ripped (confidence 4) [24553139] (AR v2) Copy OK

Track 7

Filename F:\Work\RIPs\07 - Angel in the Dark.wav

Peak level 98.8 % Extraction speed 2.3 X Track quality 99.9 % Test CRC 550A5CC5 Copy CRC 550A5CC5 Accurately ripped (confidence 4) [CA69D25E] (AR v2) Copy OK

All tracks accurately ripped

No errors occurred

End of status report

---- CUETools DB Plugin V2.1.6

[CTDB TOCID: i7f1Qlm0s5O7VPeBhKb.GSg0VOA-] foundSubmit result: i7f1Qlm0s5O7VPeBhKb.GSg0VOA- has been confirmedTrack | CTDB Status 1 | (28/28) Accurately ripped 2 | (28/28) Accurately ripped 3 | (28/28) Accurately ripped 4 | (28/28) Accurately ripped 5 | (28/28) Accurately ripped 6 | (28/28) Accurately ripped 7 | (28/28) Accurately ripped

==== Log checksum 9E03005AB0139D08CE2F912EBAEACF1ED837808343A378A175560AF5184BCEB4 ====
REM GENRE AnimeREM DATE 2000REM DISCID 540A8507REM COMMENT "ExactAudioCopy v1.3"CATALOG 0742617931024PERFORMER ""TITLE "Boogiepop Phantom - OST 1"REM COMPOSER ""FILE "01 - Boogiepop Me Up.wav" WAVE TRACK 01 AUDIO TITLE "Boogiepop Me Up" PERFORMER "Ming & FS" REM COMPOSER "" INDEX 01 00:00:00FILE "02 - A Furrow Dub.wav" WAVE TRACK 02 AUDIO TITLE "A Furrow Dub" PERFORMER "Sugar Plant" REM COMPOSER "" INDEX 01 00:00:00FILE "03 - Torso.wav" WAVE TRACK 03 AUDIO TITLE "Torso" PERFORMER "Sadesper Record" REM COMPOSER "" INDEX 01 00:00:00FILE "04 - Snow Coast.wav" WAVE TRACK 04 AUDIO TITLE "Snow Coast" PERFORMER "Yoshihiro Sawasaki" REM COMPOSER "" INDEX 01 00:00:00FILE "05 - Unstability.wav" WAVE TRACK 05 AUDIO TITLE "Unstability" PERFORMER "Hidenobu Ito" REM COMPOSER "" INDEX 01 00:00:00FILE "06 - Pone.wav" WAVE TRACK 06 AUDIO TITLE "Pone" PERFORMER "Rei Harakami" REM COMPOSER "" INDEX 01 00:00:00FILE "07 - Angel in the Dark.wav" WAVE TRACK 07 AUDIO TITLE "Angel in the Dark" PERFORMER "M.Y.K.N." REM COMPOSER "" INDEX 01 00:00:00
</div>
</div>
</div>
</div>
</div>
</div>
</div>
</div>
</div>
</div>
[spoiler="2000 - OST 2 [MNCA-3003]"]
OST 2
Список треков:
Продолжительность: 39:14

01. Daphne [4:43]
02. Sad Bird [3:45]
03. Nepenthe #1 [2:30]
04. Porcelain [2:20]
05. Egotism [3:14]
06. Forget-me-not [3:13]
07. Nepenthe #2 [2:21]
08. Criss-Cross [2:37]
09. Embrace [2:31]
10. Boogiepop [3:09]
11. Overture 'Die Meistersinger von Nurnberg' (Boogiepop Version Classical Mix) [8:51]
Official DR value: DR8
Проверка:
<div class="post-box-default">
<div class="post-box">
<div class="sp-wrap">
<div class="sp-head folded">Открыть</div>
<div class="sp-body">
<div class="sp-wrap">
<div class="sp-head folded">ЕАС Лог</div>
<div class="sp-body">

Exact Audio Copy V1.3 from 2. September 2016

EAC extraction logfile from 1. July 2018, 22:07

- / Boogiepop Phantom - OST 2

Used drive : PLEXTOR CD-R PREMIUM2 Adapter: 1 ID: 0

Read mode : SecureUtilize accurate stream : YesDefeat audio cache : YesMake use of C2 pointers : No

Read offset correction : 30Overread into Lead-In and Lead-Out : YesFill up missing offset samples with silence : YesDelete leading and trailing silent blocks : NoNull samples used in CRC calculations : YesUsed interface : Native Win32 interface for Win NT & 2000Gap handling : Appended to previous track

Used output format : User Defined EncoderSelected bitrate : 1024 kBit/sQuality : HighAdd ID3 tag : NoCommand line compressor : C:\Program Files (x86)\Exact Audio Copy\Flac\flac.exeAdditional command line options : -V -8 -T "Genre=%genre%" -T "Artist=%artist%" -T "Title=%title%" -T "Album=%albumtitle%" -T "Date=%year%" -T "Tracknumber=%tracknr%" -T "Comment=%comment%" %source%

TOC of the extracted CD

Track | Start | Length | Start sector | End sector --------------------------------------------------------- 1 | 0:00.00 | 4:42.40 | 0 | 21189 2 | 4:42.40 | 3:45.17 | 21190 | 38081 3 | 8:27.57 | 2:30.20 | 38082 | 49351 4 | 10:58.02 | 2:19.60 | 49352 | 59836 5 | 13:17.62 | 3:14.15 | 59837 | 74401 6 | 16:32.02 | 3:12.45 | 74402 | 88846 7 | 19:44.47 | 2:21.25 | 88847 | 99446 8 | 22:05.72 | 2:36.60 | 99447 | 111206 9 | 24:42.57 | 2:31.13 | 111207 | 122544 10 | 27:13.70 | 3:08.65 | 122545 | 136709 11 | 30:22.60 | 8:51.12 | 136710 | 176546

Track 1

Filename F:\Work\RIPs\01 - Daphne.wav

Pre-gap length 0:00:02.00

Peak level 99.9 % Extraction speed 2.1 X Track quality 99.9 % Test CRC AF4D2E0C Copy CRC AF4D2E0C Accurately ripped (confidence 5) [81770971] (AR v2) Copy OK

Track 2

Filename F:\Work\RIPs\02 - Sad Bird.wav

Peak level 99.9 % Extraction speed 2.4 X Track quality 100.0 % Test CRC C15C702A Copy CRC C15C702A Accurately ripped (confidence 5) [3E264C61] (AR v2) Copy OK

Track 3

Filename F:\Work\RIPs\03 - Nepenthe #1.wav

Peak level 99.9 % Extraction speed 2.2 X Track quality 100.0 % Test CRC 64B29C27 Copy CRC 64B29C27 Accurately ripped (confidence 5) [04A78C3D] (AR v2) Copy OK

Track 4

Filename F:\Work\RIPs\04 - Porcelain.wav

Peak level 99.9 % Extraction speed 1.8 X Track quality 99.9 % Test CRC 27179FBB Copy CRC 27179FBB Accurately ripped (confidence 5) [7E6304C6] (AR v2) Copy OK

Track 5

Filename F:\Work\RIPs\05 - Egotism.wav

Peak level 99.9 % Extraction speed 1.9 X Track quality 99.9 % Test CRC E3A35A22 Copy CRC E3A35A22 Accurately ripped (confidence 5) [DB99E346] (AR v2) Copy OK

Track 6

Filename F:\Work\RIPs\06 - Forget-me-not.wav

Peak level 99.9 % Extraction speed 2.3 X Track quality 100.0 % Test CRC 28327D96 Copy CRC 28327D96 Accurately ripped (confidence 5) [1A8D9C0C] (AR v2) Copy OK

Track 7

Filename F:\Work\RIPs\07 - Nepenthe #2.wav

Peak level 99.9 % Extraction speed 2.1 X Track quality 100.0 % Test CRC D426D88E Copy CRC D426D88E Accurately ripped (confidence 5) [22575424] (AR v2) Copy OK

Track 8

Filename F:\Work\RIPs\08 - Criss-Cross.wav

Peak level 99.9 % Extraction speed 2.2 X Track quality 100.0 % Test CRC 5E86A8CF Copy CRC 5E86A8CF Accurately ripped (confidence 4) [1EC65EE6] (AR v2) Copy OK

Track 9

Filename F:\Work\RIPs\09 - Embrace.wav

Peak level 99.9 % Extraction speed 2.2 X Track quality 100.0 % Test CRC 52ADB683 Copy CRC 52ADB683 Accurately ripped (confidence 5) [8F4A126D] (AR v2) Copy OK

Track 10

Filename F:\Work\RIPs\10 - Boogiepop.wav

Peak level 99.9 % Extraction speed 1.9 X Track quality 99.9 % Test CRC D4B5EF94 Copy CRC D4B5EF94 Accurately ripped (confidence 5) [537D7DFF] (AR v2) Copy OK

Track 11

Filename F:\Work\RIPs\11 - Overture ''Die Meistersinger von Nurnberg'' (Boogiepop Version Classical Mix).wav

Peak level 99.9 % Extraction speed 2.6 X Track quality 100.0 % Test CRC 9E2C67C8 Copy CRC 9E2C67C8 Accurately ripped (confidence 5) [16833600] (AR v2) Copy OK

All tracks accurately ripped

No errors occurred

End of status report

---- CUETools DB Plugin V2.1.6

[CTDB TOCID: b.dw_GOMGDgSj4rncmgdZjzWo2Y-] foundSubmit result: b.dw_GOMGDgSj4rncmgdZjzWo2Y- has been confirmedTrack | CTDB Status 1 | (10/10) Accurately ripped 2 | (10/10) Accurately ripped 3 | (10/10) Accurately ripped 4 | (10/10) Accurately ripped 5 | (10/10) Accurately ripped 6 | (10/10) Accurately ripped 7 | (10/10) Accurately ripped 8 | (10/10) Accurately ripped 9 | (10/10) Accurately ripped 10 | (10/10) Accurately ripped 11 | (10/10) Accurately ripped

==== Log checksum 22BDAFBB5BF54493745B1E948EF7CAA60385244EC3F4087AA6BEEF63489507C2 ====
[/spoiler]
REM GENRE AnimeREM DATE 2000REM DISCID A509310BREM COMMENT "ExactAudioCopy v1.3"CATALOG 0742617931123PERFORMER ""TITLE "Boogiepop Phantom - OST 2"REM COMPOSER ""FILE "01 - Daphne.wav" WAVE TRACK 01 AUDIO TITLE "Daphne" PERFORMER "Yuki Kajiura" REM COMPOSER "" INDEX 01 00:00:00FILE "02 - Sad Bird.wav" WAVE TRACK 02 AUDIO TITLE "Sad Bird" PERFORMER "Yuki Kajiura" REM COMPOSER "" INDEX 01 00:00:00FILE "03 - Nepenthe #1.wav" WAVE TRACK 03 AUDIO TITLE "Nepenthe #1" PERFORMER "Yuki Kajiura" REM COMPOSER "" INDEX 01 00:00:00FILE "04 - Porcelain.wav" WAVE TRACK 04 AUDIO TITLE "Porcelain" PERFORMER "Yuki Kajiura" REM COMPOSER "" INDEX 01 00:00:00FILE "05 - Egotism.wav" WAVE TRACK 05 AUDIO TITLE "Egotism" PERFORMER "Yuki Kajiura" REM COMPOSER "" INDEX 01 00:00:00FILE "06 - Forget-me-not.wav" WAVE TRACK 06 AUDIO TITLE "Forget-me-not" PERFORMER "Yuki Kajiura" REM COMPOSER "" INDEX 01 00:00:00FILE "07 - Nepenthe #2.wav" WAVE TRACK 07 AUDIO TITLE "Nepenthe #2" PERFORMER "Yuki Kajiura" REM COMPOSER "" INDEX 01 00:00:00FILE "08 - Criss-Cross.wav" WAVE TRACK 08 AUDIO TITLE "Criss-Cross" PERFORMER "Yuki Kajiura" REM COMPOSER "" INDEX 01 00:00:00FILE "09 - Embrace.wav" WAVE TRACK 09 AUDIO TITLE "Embrace" PERFORMER "Yuki Kajiura" REM COMPOSER "" INDEX 01 00:00:00FILE "10 - Boogiepop.wav" WAVE TRACK 10 AUDIO TITLE "Boogiepop" PERFORMER "Yuki Kajiura" REM COMPOSER "" INDEX 01 00:00:00FILE "11 - Overture ''Die Meistersinger von Nurnberg'' (Boogiepop Version Classical Mix).wav" WAVE TRACK 11 AUDIO TITLE "Overture 'Die Meistersinger von Nurnberg' (Boogiepop Version Classical Mix)" PERFORMER "Yoshihisa Hirano" REM COMPOSER "Richard Wagner" INDEX 01 00:00:00
</div>
</div>
</div>
</div>
</div>
</div>
</div>
</div>


Трекер:  [ 25-Июл-2018 23:06 ]

  

Скачать .torrent

Размер .torrent файла 22 KB


Размер: 799 MB
Хэш (hash) релиза: 45de94cfd33b2de3de012f6d4496852cb99db410

Еще никто не оставлял запись к записи скачать торрент Boogiepop Phantom Бугипоп никогда не смеётся - 2000 г., FLAC . Будь первым!

!Обратная связь