Скачать через торрент Твоё имя Kimi no Na wa бесплатно Аниме Все серии на русском torrent

Статистика раздачи
Размер:  8.63 GB   |    Зарегистрирован:  2 месяца 22 дня   |    .torrent скачан:  63 раза   |   
Раздают:  1  
   
загрузка...
 
Автор Сообщение

Galfimbul

avatar Galfimbul


Твоё имя / Kimi no Na wa / Your Name (Макото Синкай)

Страна: Япония
Год выпуска: 2016
Жанр: романтика, драма, приключения, мистика
Тип: Movie
Продолжительность: 107 мин
Режиссер: Макото Синкай
Студия: Comix Wave

Описание: Девушка из провинциальной деревушки "Итомори". Парень из Токио. Их судьбы никогда бы не пересеклись, если бы не вмешалась мистика. Однажды, Мицука, именно так зовут девушку, загадывает желание - "стать симпатичным парнем из Токио" и оно сбывается. Вот только в моменты, когда она становится этим симпатичным парнем, Таки, так зовут парня, становится ей. Они в буквальном смысле - меняются местами.

Качество: BDRip
Тип релиза: Без хардсаба
Формат видео: MKV
Наличие линковки: Нет
Релиз/Автор рипа: Radomyr
Видео: H264, 1920x1080, 8 424 kbps, 23.976 fps, 10 bits
Аудио 1: AAC, 156 kbps, 48000 Hz, 2 ch Язык Русский (в составе контейнера) ; Озвучка 1: дубляж, Мосфильм
Аудио 2: FLAC, 1536 kbps, 48000 Hz, 2 ch Язык Русский (в составе контейнера) ; Озвучка 2: дубляж, Anilibria.tv
Аудио 3: FLAC, 1536 kbps, 48000 Hz, 2 ch Язык Русский (в составе контейнера) ; Озвучка 3: оригинал
Субтитры 1: ASS, встроенные 1 Язык субтитров русский: Anilibria.tv (песни/надписи)
Субтитры 2: ASS, встроенные 2 Язык субтитров русский: [BBNG+Саша+Endill + 2nd Division + Acit Na Morte Vos] (Франкенштейн)
Субтитры 3: ASS, встроенные 3 Язык субтитров русский: drnndy (песни/надписи)
Субтитры 4: ASS, встроенные 4 Язык субтитров русский: drnndy
[pre]General
Unique ID : 46722974215448205162363882534931007647 (0x2326847BBF59C3951B8D65B41DF0089F)
Complete name : D:\Kimi no Na wa [BDRip 1920x1080 x264]\[Beatrice-Raws] Kimi no Na wa [BDRip 1920x1080 x264].mkv
Format : Matroska
Format version : Version 4 / Version 2
File size : 7.29 GiB
Duration : 1 h 46 min
Overall bit rate mode : Variable
Overall bit rate : 9 786 kb/s
Movie name : [Мосфильм_дубляж]
Encoded date : UTC 2018-07-25 20:19:38
Writing application : mkvmerge v24.0.0 ('Beyond The Pale') 64-bit
Writing library : libebml v1.3.6 + libmatroska v1.4.9
Attachments : BOOKOS.TTF / BOOKOSB.TTF / BOOKOSB0.TTF / BOOKOSB2.TTF / BOOKOSBI.TTF / BOOKOSI.TTF / Brush_m.ttf / BrushType-SemiBold Regular.Ttf / comic__2.ttf / DFPSNGyosho-W5-CP-Spec.ttf / DS Goose.ttf / hortens0.ttf / Modernist One.ttf / Moderno One.ttf / ObelixPro (Regular).ttf / OHCRBRG.TTF / palabi_0.ttf / Passing Notes.ttf / ResavskaBGSansBold.ttf / ResavskaBGSansBoldItalic.ttf / ResavskaBGSansItalic.ttf / ResavskaBGSansRegular.ttf / ROMIC.TTF / segoepr.ttf / segoepr0.ttf / segoeprb.ttf / segoesc.ttf / segoesc0.ttf / segoescb.ttf / SFORSONCASUALLIGHT.TTF / SitkaB.ttc / TECHD___.TTF / TkachenkoSketch4F-Regular.ttf / TrajanPro3-Regular.otf / v_10CentComics_v1.1.ttf / v_Augie_v1.03.ttf / v_AutoDestructBB_Reg_v1.0.ttf / v_BlambotFXProBB-Light_v1.01.ttf / v_CCBellyLaugh (Regular).ttf / v_CCCutthroatInt-Regular_v1.1.ttf / v_CCYadaYadaYadaInt-Regular_v1.ttf / v_RedSt0.3.t / 1915.ttf / 8435.ttf / 8584.ttf / 11719.ttf / 2118554.ttf / 8277_0.ttf / 8277_0.ttf

Video
ID : 1
Format : AVC
Format/Info : Advanced Video Codec
Format profile : High 10@L5
Format settings, CABAC : Yes
Format settings, RefFrames : 4 frames
Codec ID : V_MPEG4/ISO/AVC
Duration : 1 h 46 min
Bit rate : 8 424 kb/s
Width : 1 920 pixels
Height : 1 080 pixels
Display aspect ratio : 16:9
Frame rate mode : Constant
Frame rate : 23.976 (24000/1001) FPS
Color space : YUV
Chroma subsampling : 4:2:0
Bit depth : 10 bits
Scan type : Progressive
Bits/(Pixel*Frame) : 0.169
Stream size : 6.27 GiB (86%)
Title : BDrip by Jensen
Writing library : x264 core 152 r2851M ba24899 (DJATOM's build)
Encoding settings : cabac=1 / ref=4 / deblock=1:1:-1 / analyse=0x3:0x113 / me=umh / subme=9 / psy=1 / psy_rd=1.00:0.00 / mixed_ref=1 / me_range=32 / chroma_me=1 / trellis=2 / 8x8dct=1 / cqm=0 / deadzone=21,11 / fast_pskip=1 / chroma_qp_offset=-2 / threads=34 / lookahead_threads=5 / sliced_threads=0 / nr=0 / decimate=1 / interlaced=0 / bluray_compat=0 / constrained_intra=0 / bframes=9 / b_pyramid=2 / b_adapt=2 / b_bias=0 / direct=1 / weightb=1 / open_gop=0 / weightp=2 / keyint=240 / keyint_min=23 / scenecut=40 / intra_refresh=0 / rc=crf / mbtree=0 / crf=15.0000 / qcomp=0.72 / qpmin=0 / qpmax=81 / qpstep=4 / ip_ratio=1.40 / pb_ratio=1.30 / aq=1:0.85
Language : Japanese
Default : Yes
Forced : No
Color range : Limited
Color primaries : BT.709
Transfer characteristics : BT.709
Matrix coefficients : BT.709

Audio #1
ID : 6
Format : AAC
Format/Info : Advanced Audio Codec
Format profile : LC
Codec ID : A_AAC
Duration : 1 h 46 min
Bit rate : 156 kb/s
Channel(s) : 2 channels
Channel positions : Front: L R
Sampling rate : 48.0 kHz
Frame rate : 46.875 FPS (1024 SPF)
Compression mode : Lossy
Stream size : 119 MiB (2%)
Title : [Мосфильм дубляж]
Language : Russian
Default : Yes
Forced : Yes

Audio #2
ID : 7
Format : FLAC
Format/Info : Free Lossless Audio Codec
Codec ID : A_FLAC
Duration : 1 h 46 min
Bit rate mode : Variable
Bit rate : 617 kb/s
Channel(s) : 2 channels
Channel positions : Front: L R
Sampling rate : 48.0 kHz
Frame rate : 11.719 FPS (4096 SPF)
Bit depth : 16 bits
Stream size : 470 MiB (6%)
Title : [Anilibria дубляж]
Writing library : libFLAC 20080709 (UTC 2008-07-09)
Language : Russian
Default : No
Forced : No

Audio #3
ID : 8
Format : FLAC
Format/Info : Free Lossless Audio Codec
Codec ID : A_FLAC
Duration : 1 h 46 min
Bit rate mode : Variable
Bit rate : 572 kb/s
Channel(s) : 2 channels
Channel positions : Front: L R
Sampling rate : 48.0 kHz
Frame rate : 11.719 FPS (4096 SPF)
Bit depth : 16 bits
Stream size : 436 MiB (6%)
Writing library : libFLAC 1.3.2 (UTC 2017-01-01)
Language : Japanese
Default : No
Forced : No

Text #1
ID : 2
Format : ASS
Codec ID : S_TEXT/ASS
Codec ID/Info : Advanced Sub Station Alpha
Duration : 1 h 44 min
Bit rate : 460 b/s
Count of elements : 1834
Compression mode : Lossless
Stream size : 352 KiB (0%)
Title : Надписи / Песни [Anilibria]
Language : Russian
Default : Yes
Forced : Yes

Text #2
ID : 3
Format : ASS
Codec ID : S_TEXT/ASS
Codec ID/Info : Advanced Sub Station Alpha
Duration : 1 h 45 min
Bit rate : 510 b/s
Count of elements : 2866
Compression mode : Lossless
Stream size : 394 KiB (0%)
Title : Полные [BBNG+Саша+Endill + 2nd Division + Acit Na Morte Vos]
Language : Russian
Default : No
Forced : No

Text #3
ID : 4
Format : ASS
Codec ID : S_TEXT/ASS
Codec ID/Info : Advanced Sub Station Alpha
Duration : 1 h 45 min
Bit rate : 39 b/s
Count of elements : 329
Compression mode : Lossless
Stream size : 30.6 KiB (0%)
Title : Надписи / Песни [drnndy]
Language : Russian
Default : No
Forced : No

Text #4
ID : 5
Format : ASS
Codec ID : S_TEXT/ASS
Codec ID/Info : Advanced Sub Station Alpha
Duration : 1 h 45 min
Bit rate : 137 b/s
Count of elements : 1477
Compression mode : Lossless
Stream size : 106 KiB (0%)
Title : Субтитры [drnndy]
Language : Russian
Default : No
Forced : No

Menu
00:00:00.000 : en:残響 / Echo
00:01:34.094 : en:オープニング / Opening
00:03:21.868 : en:端緒 / Beginning
00:05:13.271 : en:宮水一家 / Miyamizu Family
00:08:37.308 : en:お前は誰だ? / Who Are You?
00:12:11.314 : en:組紐 / Kumihimo
00:14:32.371 : en:口噛み酒 / Kuchikamizake
00:17:22.500 : en:東京 / Tokyo
00:22:57.918 : en:奥寺先輩 / Okudera-senpai
00:27:05.624 : en:異変1 / Accident 1
00:28:16.570 : en:異変2 / Accident 2
00:29:53.542 : en:入れ替わりの日々 / Day by Day
00:32:42.836 : en:御神体 / Object of Worship
00:37:26.995 : en:デート / Date
00:41:57.765 : en:秋祭り / Autumn Festival
00:44:30.334 : en:断絶 / Disconnection
00:45:54.001 : en:探訪 / Searching
00:48:28.656 : en:消えた糸守町 / Itomori Town that Disappeared
00:53:01.387 : en:追求 / Pursuit
00:56:53.869 : en:記憶 / Recollection
01:03:42.318 : en:再演 / Replay
01:06:03.793 : en:作戦会議 / Strategy Meeting
01:09:44.931 : en:予感 / Premonition
01:12:41.816 : en:邂逅 / Chance Meeting
01:16:42.473 : en:カタワレ時 / Twilight
01:21:21.710 : en:うつくしく, もがく / Beautiful, Struggling
01:29:12.806 : en:恋 / Love
01:32:51.858 : en:あと少しだけ / Just a Little Longer
01:37:01.733 : en:君の名は. / Your Name.
01:41:19.615 : en:スタッフ・クレジット / Staff Roll
720p:
...5432868
...5378059
1080p:
...5382468 (аналогичная по качеству)
...5429030 (аналогичная по качеству)
...5378058
...5433554
2160p:
...5437946
...5437945
...5501366


Трекер:  [ 25-Июл-2018 23:30 ]

  

Скачать .torrent

Размер .torrent файла 45 KB


Размер: 8.63 GB
Хэш (hash) релиза: 5b0f84748faaf495a493a7e7808ffda5110c1029
Подписка на обновления:

Торренты, похожие на Твоё имя Kimi no Na wa скачать торрент

Форум Название Автор Размер S L Добавлен
Аниме | HD Rips ·%· Твоё имя / Kimi no Na wa. / Your Name. [Movie] [Без хардсаба] [RUS(int), JAP, SUB] [2016, романтика, драма, BDRip] [1080p] Galfimbul 23505974632.19 GB 0 0 1532964630

18:30

30-Июл-18

Аниме | Rips ·· Твоё имя / Kimi no Na wa / Your Name [Movie] [Без хардсаба] [2016, романтика, драма, школа, BDRip] Galfimbul 15818055681.47 GB 0 0 1520679699

14:01

10-Мар-18

Аниме | Rips ·· Твоё имя / Kimi no Na wa / Your Name (Макото Синкай) [Movie] [Без хардсаба] [RUS(int)] [2016, Романтика, драма, фантастика, школа, SATRip] [HWP] Galfimbul 894376248853 MB 0 0 1518651045

02:30

15-Фев-18

Аниме | HD Rips ·· Твоё имя / Kimi no Na wa. / Your Name. (Макото Синкай) [Movie] [Без хардсаба] [RUS(ext),JAP+SUB] [2016, романтика, драма, школа, сверхъестественное, BDRemux] [2160p] Galfimbul 5432788370350.6 GB 0 0 1514876498

10:01

2-Янв-18

Аниме | Rips ·· Твоё имя / Kimi no Na wa. / Your Name [Movie] [Без хардсаба] [RUS(int), JAP+SUB] [2016, романтика, драма, BDRip] [HWP] Galfimbul 18845597311.76 GB 0 0 1503342141

22:02

21-Авг-17

Аниме | HD Rips ·· Твоё имя / Kimi no Na wa. / Your Name. (Макото Синкай) [Movie] [Без хардсаба] [RUS(ext),JAP+SUB] [2016, романтика, драма, школа, сверхъестественное, BDRip] [2160p] Galfimbul 2228626988820.76 GB 0 0 1502110910

16:01

7-Авг-17

Аниме | Rips ·· Твоё имя / Kimi no Na wa / Your Name (Макото Синкай) [Movie] [Без хардсаба] [RUS(int), JAP] [2016, романтика, драма, школа, сверхъестественное, BDRip] [HWP] Galfimbul 13385461761.25 GB 0 0 1501164139

17:02

27-Июл-17

Аниме | Rips ·· Твоё имя / Kimi no Na wa / Your Name (Макото Синкай) [Movie] [Без хардсаба] [RUS(int), JAP] [2016, романтика, драма, школа, сверхъестественное, WEBRip] Galfimbul 24353116522.27 GB 0 0 1501164135

17:02

27-Июл-17

Аниме | Rips ·· Твоё имя / Kimi no Na wa. / Your Name. (Макото Синкай) [Movie] [Без хардсаба] [RUS(ext),JAP+SUB] [2016, романтика, драма, школа, сверхъестественное, BDRemux] [1080p] Galfimbul 2776574660725.86 GB 0 0 1501153355

14:02

27-Июл-17

Аниме | Rips ·· Твоё имя / Kimi no Na wa. / Your Name. (Макото Синкай) [Movie] [Без хардсаба] [RUS(ext),JAP+SUB] [2016, романтика, драма, школа, сверхъестественное, BDRip] [720p] Galfimbul 24267434232.26 GB 0 0 1501056140

11:02

26-Июл-17

Аниме | HD Rips ·· Твоё имя / Kimi no Na wa. / Your Name. (Макото Синкай) [Movie] [RUS(ext),JAP+SUB] [2016, романтика, драма, школа, сверхъестественное, BDRip] [1080p] Galfimbul 36020803073.35 GB 0 0 1501043508

07:31

26-Июл-17

Аниме | Rips ·· Твоё имя / Kimi no Na wa. / Your Name. (Макото Синкай) [Movie] [RUS(ext),JAP+SUB] [2016, романтика, драма, школа, сверхъестественное, BDRip] [1080p] Galfimbul 36730313143.42 GB 0 0 1501043487

07:31

26-Июл-17

Аниме | HD Rips ·· Твоё имя / Kimi no Na wa. / Your Name. (Макото Синкай) [Movie] [RUS(ext),JAP+SUB] [2016, романтика, драма, школа, сверхъестественное, BDRemux] [1080p] Galfimbul 2926596212327.26 GB 0 0 1500969724

11:02

25-Июл-17

Аниме | HD Rips ·· Твоё имя / Kimi no Na wa. / Your Name. (Макото Синкай) [Movie] [RUS(ext),JAP+SUB] [2016, романтика, драма, школа, сверхъестественное, BDRip] [720p] Galfimbul 23569881702.2 GB 0 0 1500967854

10:30

25-Июл-17

Аниме | HD Rips ·· Твоё имя / Kimi no Na wa / Your Name (Макото Синкай) [Movie] [Хардсаб] [RUS(int), JAP] [2016, романтика, драма, школа, сверхъестественное, WEBRip] [720p] Galfimbul 1033077068985 MB 0 0 1486423606

02:26

7-Фев-17

Аниме | Rips ·· Твоё имя / Kimi no Na wa / Your Name (Макото Синкай) [Movie] [Хардсаб] [RUS(int),JAP] [2016, романтика, драма, школа, сверхъестественное, DVDRip] Galfimbul 850082759811 MB 0 0 1481993787

19:56

17-Дек-16

Аниме | Rips ·· Твоё имя / Kimi no Na wa / Your Name [Movie] [Хардсаб] [RUS(int), JAP+SUB] [2016 г., романтика, драма, школа, сверхъестественное, DVDRip] [480p] Galfimbul 891909969851 MB 0 0 1473793271

22:01

13-Сен-16

Еще никто не оставлял запись к записи скачать торрент Твоё имя Kimi no Na wa . Будь первым!

!Обратная связь