Скачать через торрент Дракоша Тоша Сезон: 1 Фильм бесплатно в хорошем качестве torrent

Скачивайте на UnionPeer.org фильмы через торрент без регистрации. Новинки кино в хорошем качестве через торрент. На UnionPeer.org можно скачать через торрент фильмы 2014 и 2015 годов. Самые новые фильмы.

Скачать торрент Дракоша Тоша Сезон: 1 бесплатно через .torrent фильм мультфильм сериал

Статистика раздачи
Размер:  892 MB   |    Зарегистрирован:  2 месяца 21 день   |    .torrent скачан:  30 раз   |   
Раздают:  1  
   
загрузка...
 
Автор Сообщение

Galfimbul

avatar Galfimbul


Дракоша Тоша

Страна: Россия
Жанр: рисованный, детский, обучающий, познавательный
Продолжительность серии: 00:05:40
Год выпуска: 2017 - н.в.
Перевод: Не требуется
Русские субтитры: нет

Режиссёр: Марина Мошкова
Описание: В основе сюжета — жизнь обычной семьи панд, в которой появился необычный друг — живая игрушка-дракончик по имени Тоша. Родители-панды о нем не догадываются, а дети-медвежата — Няша и Яша — не могут без него прожить и дня. Ведь Дракоша Тоша и его помощник Тойройчик могут любой скучный день превратить в фантастическое приключение, а заодно дать ответы на все вопросы маленьких почемучек. Как побороть ночные страхи? Как найти общий язык с самым маленьким? Что такое солнечные зайчики и откуда берутся лужи? И прочие вопросы, которых у наших героев, как и у наших детей, очень много. А чтобы и пандочкам, и зрителям было легче понять ответы, Тойройчик — баночка с волшебными мыльными пузырями — выдувает волшебный пузырь, который переносит наших героев в удивительный мир приключений и открытий!

Доп. информация: Все серии взяты с официального канала Drakosha ToshaРаздача ведется добавлением новых серий
Качество: WEB-DL 1080p
Формат: MP4
Видео: 1920x1080 (1,78:1), 25 fps, avc1 ~1229 kbps avg, 0.024 Bits/(Pixel*Frame)
Аудио: 44.1 kHz, AAC, 2.0 (L,R) ch, ~126 kbps avg
Субтитры: отсутствуют
01. Подкроватные монстры.mp4
02. Что такое Ося.mp4
03. Страна "Упрямдия.mp4
04. Школа заботы.mp4
05. Пираты.mp4
06. Торопыга и Терпение.mp4
07. Страна разбросанных бумажек.mp4
08. Настроение.mp4
09. Запретное слово.mp4
10. Бесконечный день рождения.mp4
11. Сказка на ночь.mp4
12. Няша-великаша.mp4
13. Леньдо - Дракоша Тоша.mp4
14. Большая игра.mp4
15. За Вечными конфетами.mp4
16. Маркиза Каприза.mp4
17. Воображандия.mp4
18. Яшландия.mp4
19. Закаляка.mp4
20. Я сам!.mp4
21. Волшебное зеркало.mp4
Полное имя : 01. Подкроватные монстры.mp4Формат : MPEG-4Профиль формата : Base MediaИдентификатор кодека : isom (isom/iso2/avc1/mp41)Размер файла : 55,2 МбайтПродолжительность : 5 м. 40 с.Общий поток : 1361 Кбит/секПрограмма кодирования : Lavf57.2.100

Идентификатор : 1Формат : AVCФормат/Информация : Advanced Video CodecПрофиль формата : High@L4Настройки формата : CABAC / 3 Ref FramesПараметр CABAC формата : ДаПараметр RefFrames формата : 3 кадраИдентификатор кодека : avc1Идентификатор кодека/Информация : Advanced Video CodingПродолжительность : 5 м. 40 с.Битрейт : 1229 Кбит/секШирина : 1920 пикселейВысота : 1080 пикселейСоотношение сторон : 16:9Режим частоты кадров : ПостоянныйЧастота кадров : 25,000 кадров/секЦветовое пространство : YUVСубдискретизация насыщенности : 4:2:0Битовая глубина : 8 битТип развёртки : ПрогрессивнаяБит/(Пиксели*Кадры) : 0.024Размер потока : 49,9 Мбайт (90%)Цветовой диапазон : LimitedОсновные цвета : BT.709Характеристики трансфера : BT.709Коэффициенты матрицы : BT.709

Идентификатор : 2Формат : AACФормат/Информация : Advanced Audio CodecПрофиль формата : LCИдентификатор кодека : mp4a-40-2Продолжительность : 5 м. 40 с.Вид битрейта : ПостоянныйБитрейт : 126 Кбит/секКаналы : 2 каналаРасположение каналов : Front: L RЧастота : 44,1 КГцЧастота кадров : 43,066 кадра/сек (1024 SPF)Метод сжатия : С потерямиРазмер потока : 5,10 Мбайт (9%)Default : ДаAlternateGroup/String : 1
Предыдущие и альтернативные раздачи

Трекер:  [ 26-Июл-2018 10:54 ]

  

Скачать .torrent

Размер .torrent файла 36 KB


Размер: 892 MB
Хэш (hash) релиза: 931e60e0d9f69a7e0653165c6d8eb434f92b8e82
Подписка на обновления:

Еще никто не оставлял запись к записи скачать торрент Дракоша Тоша Сезон: 1 . Будь первым!

!Обратная связь