Скачать через торрент Дрожащая Правда The Shivering Truth Фильм бесплатно в хорошем качестве torrent

Скачивайте на UnionPeer.org фильмы через торрент без регистрации. Новинки кино в хорошем качестве через торрент. На UnionPeer.org можно скачать через торрент фильмы 2014 и 2015 годов. Самые новые фильмы.

Скачать торрент Дрожащая Правда The Shivering Truth бесплатно через .torrent фильм мультфильм сериал

Статистика раздачи
Размер:  246 MB   |    Зарегистрирован:  2 месяца 21 день   |    .torrent скачан:  25 раз   |   
Раздают:  1  
   
загрузка...
 
Автор Сообщение

Galfimbul

avatar Galfimbul


Дрожащая Правда / The Shivering Truth

Страна: США
Жанр: Комедия, ужасы
Продолжительность серии: 00:11:10
Год выпуска: 2018
Перевод: Любительский (двухголосый закадровый) NewStation
Русские субтитры: нет

Режиссёр: Вернон Четмэн, Кэт Солен
Роли озвучивали: Майкл Сера, Джона Хилл, Вернон Четмэн, Старли Кайн / Michael Cera, Jonah Hill, Vernon Chatma, Starlee Kine

Описание: Дрожащая Правда — это миниатюра, приводящая в движение бомбовую кассету антиобщественных дневных кошмаров, со стекающей оранжевой слизью логичности снов. Истории в сериале слабо связаны с моральными притчами через сказки, выползшие из глубочайших пещер вашего подсознания и ставшие дыхательной пощёчиной прорисованной с любовью анимации, - другими словами, это и есть правда.

Доп. информация: без рекламы

Семпл: http://multi-up.com/1204730
Предыдущие и альтернативные раздачи

Качество: HDTV 720p
Формат: MKV
Видео: AVC, 1280x720, 16:9, 23,976 кадров/сек, ~2555 Кбит/сек
Аудио #1: [RUS] 48 kHz, AC-3, 2ch, ~256 kbps
Аудио #2: [ENG] 48 kHz, AC-3, 2ch, ~256 kbps
Субтитры: нет
ОбщееУникальный идентификатор : 288865455677814295305367020986046940436 (0xD951768DA637E5194B65FD7B98F50514)Полное имя : F:\NewStation\The.Shivering.Truth.S01.HDTV.720p.NewStation\The.Shivering.Truth.S01E00.HDTV.720p.NewStation.mkvФормат : MatroskaВерсия формата : Version 4 / Version 2Размер файла : 246 МбайтПродолжительность : 11 м. 10 с.Общий поток : 3078 Кбит/секДата кодирования : UTC 2018-07-25 22:51:28Программа кодирования : mkvmerge v25.0.0 ('Prog Noir') 64-bitБиблиотека кодирования : libebml v1.3.6 + libmatroska v1.4.9

ВидеоИдентификатор : 1Формат : AVCФормат/Информация : Advanced Video CodecПрофиль формата : High@L3.1Настройки формата : CABAC / 4 Ref FramesПараметр CABAC формата : ДаПараметр RefFrames формата : 4 кадраИдентификатор кодека : V_MPEG4/ISO/AVCПродолжительность : 11 м. 10 с.Битрейт : 2555 Кбит/секШирина : 1280 пикселейВысота : 720 пикселейСоотношение сторон : 16:9Режим частоты кадров : ПостоянныйЧастота кадров : 23,976 (24000/1001) кадра/секЦветовое пространство : YUVСубдискретизация насыщенности : 4:2:0Битовая глубина : 8 битТип развёртки : ПрогрессивнаяБит/(Пиксели*Кадры) : 0.116Размер потока : 205 Мбайт (83%)Библиотека кодирования : x264 core 148Настройки программы : cabac=1 / ref=3 / deblock=1:0:0 / analyse=0x3:0x113 / me=hex / subme=7 / psy=1 / psy_rd=1.00:0.00 / mixed_ref=1 / me_range=16 / chroma_me=1 / trellis=1 / 8x8dct=1 / cqm=0 / deadzone=21,11 / fast_pskip=1 / chroma_qp_offset=-2 / threads=3 / lookahead_threads=1 / sliced_threads=0 / nr=0 / decimate=1 / interlaced=0 / bluray_compat=0 / constrained_intra=0 / bframes=3 / b_pyramid=2 / b_adapt=1 / b_bias=0 / direct=1 / weightb=1 / open_gop=0 / weightp=2 / keyint=250 / keyint_min=23 / scenecut=40 / intra_refresh=0 / rc_lookahead=40 / rc=abr / mbtree=1 / bitrate=2555 / ratetol=1.0 / qcomp=0.60 / qpmin=0 / qpmax=69 / qpstep=4 / ip_ratio=1.40 / aq=1:1.00Default : ДаForced : Нет

Аудио #1Идентификатор : 2Формат : AC-3Формат/Информация : Audio Coding 3Идентификатор кодека : A_AC3Продолжительность : 11 м. 10 с.Вид битрейта : ПостоянныйБитрейт : 256 Кбит/секКаналы : 2 каналаРасположение каналов : Front: L RЧастота : 48,0 КГцЧастота кадров : 31,250 кадров/сек (1536 SPF)Битовая глубина : 16 битМетод сжатия : С потерямиРазмер потока : 20,5 Мбайт (8%)Заголовок : NewStationЯзык : RussianServiceKind/String : Complete MainDefault : ДаForced : Нет

Аудио #2Идентификатор : 3Формат : AC-3Формат/Информация : Audio Coding 3Идентификатор кодека : A_AC3Продолжительность : 11 м. 10 с.Вид битрейта : ПостоянныйБитрейт : 256 Кбит/секКаналы : 2 каналаРасположение каналов : Front: L RЧастота : 48,0 КГцЧастота кадров : 31,250 кадров/сек (1536 SPF)Битовая глубина : 16 битМетод сжатия : С потерямиРазмер потока : 20,5 Мбайт (8%)Заголовок : OriginalServiceKind/String : Complete MainDefault : НетForced : Нет


Трекер:  [ 26-Июл-2018 20:24 ]

  

Скачать .torrent

Размер .torrent файла 19 KB


Размер: 246 MB
Хэш (hash) релиза: 8ea9a24c070c560839d9fec9c19d2374326e3794
Подписка на обновления:

Еще никто не оставлял запись к записи скачать торрент Дрожащая Правда The Shivering Truth . Будь первым!

!Обратная связь