Скачать через торрент Вторжение гигантов бесплатно Аниме Все серии на русском torrent

Статистика раздачи
Размер:  715 MB   |    Зарегистрирован:  2 месяца 21 день   |    .torrent скачан:  48 раз   |   
Раздают:  1  
   
загрузка...
 
Автор Сообщение

Galfimbul

avatar Galfimbul



Вторжение гигантов (ТВ-3) / Shingeki no Kyojin Season 3 / Attack on Titan / Атака титанов
Страна: Япония
Год выпуска: 2018
Жанр: Боевик, военный, детектив, драма, сёнэн, супер сила, фэнтези
Тип: TV
Продолжительность: 12 эп. по ~24 мин.
Режиссер: Араки Тэцуро
Студия: Wit Studio
Озвучка:
Озвучка от Onibaku Group (двухголосая (жен./муж.), Eladiel & Zendos)
Описание: В новом сезоне, наши герои возвращаются после важной миссии по возвращению Эрена. Но приехав в город, они сталкиваются с новой угрозой – правительством. После убийства пастора Ника ситуация внутри стен заметно накаляется. Зная, что действия монархии сильно угрожают человечеству, Эрвин Смит начинает подготовку к свержению старого правительства, а после – назначении Кристы новой королевой.
Информационные ссылки: World Art | AniDB | MAL
Качество: WEBRip
Тип релиза: Без хардсаба
Формат видео: MKV
Наличие линковки: Нет
Релиз/Автор рипа: DameDesuYo
Видео: x264 (10bit), 1920x1080, ~3915 kbps, 23.976 fps
Аудио Rus (int): Vorbis, ~256 kbps, 48.0 kHz, 2 ch
Субтитры: ASS; встроенные; субтитры; перевод: Onibaku Group
GeneralUnique ID : 206511084597550742249435143634268349246 (0x9B5C9692240824418ADD6E5974DA633E)Complete name : J:\аниме\Вторжение гигантов 3 - 1080p\Shingeki_no_Kyojin_3_[38]_[ru]_[Zendos_&_Eladiel]_[WebRip_1080p]_[Vorbis].mkvFormat : MatroskaFormat version : Version 4 / Version 2File size : 715 MiBDuration : 23 min 55 sOverall bit rate mode : VariableOverall bit rate : 4 177 kb/sMovie name : Shingeki no Kyojin (Season 3) - 38 - Smoke SignalEncoded date : UTC 2018-07-26 18:57:19Writing application : mkvmerge v8.3.0 ('Over the Horizon') 64bitWriting library : libebml v1.3.1 + libmatroska v1.4.2Attachments : 1 Blackmoor LET Plain1.0.ttf / 12551.ttf / 12551_0.ttf / Clearface_SSi_Bold.ttf / Graffiti2C Regular.ttf / seagull.ttf

VideoID : 1Format : AVCFormat/Info : Advanced Video CodecFormat profile : High 10@L5.1Format settings : CABAC / 16 Ref FramesFormat settings, CABAC : YesFormat settings, RefFrames : 16 framesCodec ID : V_MPEG4/ISO/AVCDuration : 23 min 55 sBit rate : 3 915 kb/sWidth : 1 920 pixelsHeight : 1 080 pixelsDisplay aspect ratio : 16:9Frame rate mode : ConstantFrame rate : 23.976 (24000/1001) FPSColor space : YUVChroma subsampling : 4:2:0Bit depth : 10 bitsScan type : ProgressiveBits/(Pixel*Frame) : 0.079Stream size : 670 MiB (94%)Writing library : x264 core 148 r2762+56 7979737 t_mod_Custom [10-bit@all X86_64]Encoding settings : cabac=1 / ref=16 / deblock=1:-2:-2 / analyse=0x3:0x133 / me=umh / subme=10 / psy=1 / fade_compensate=0.50 / psy_rd=0.75:0.00 / mixed_ref=1 / me_range=32 / chroma_me=1 / trellis=2 / 8x8dct=1 / cqm=0 / deadzone=21,11 / fast_pskip=0 / chroma_qp_offset=-2 / threads=12 / lookahead_threads=3 / sliced_threads=0 / nr=0 / decimate=0 / interlaced=0 / bluray_compat=0 / constrained_intra=0 / fgo=0 / bframes=16 / b_pyramid=2 / b_adapt=2 / b_bias=0 / direct=3 / weightb=1 / open_gop=0 / weightp=2 / keyint=480 / keyint_min=12 / scenecut=40 / intra_refresh=0 / rc_lookahead=48 / rc=crf / mbtree=1 / crf=17.0000 / qcomp=0.80 / qpmin=0:0:0 / qpmax=51:51:51 / qpstep=4 / ip_ratio=1.40 / aq=3:0.90 / aq-sensitivity=10.00 / aq-factor=1.00:1.00:1.00 / aq2=0 / aq3=0Language : EnglishDefault : YesForced : NoColor range : LimitedMatrix coefficients : BT.709

AudioID : 2Format : VorbisFormat settings, Floor : 1Codec ID : A_VORBISDuration : 23 min 55 sBit rate mode : VariableBit rate : 256 kb/sChannel(s) : 2 channelsSampling rate : 48.0 kHzFrame rate : 120.018 FPS (400 SPF)Compression mode : LossyStream size : 43.5 MiB (6%)Title : Zendos & Eladiel (Onibaku Group)Writing library : libVorbis 1.0 (UTC 2002-07-17)Language : RussianDefault : YesForced : No

TextID : 3Format : ASSCodec ID : S_TEXT/ASSCodec ID/Info : Advanced Sub Station AlphaDuration : 23 min 6 sBit rate : 41 b/sCount of elements : 70Compression mode : LosslessStream size : 7.05 KiB (0%)Title : НадписиLanguage : RussianDefault : YesForced : No

Menu00:00:00.033 : en:Intro00:00:34.970 : en:OP00:02:04.970 : en:Part A00:16:33.970 : en:Part B00:23:39.980 : en:Preview
1(38). Сигнальный огонь
...5591324 - наличие озвучки


Трекер:  [ 26-Июл-2018 23:30 ]

  

Скачать .torrent

Размер .torrent файла 14 KB


Размер: 715 MB
Хэш (hash) релиза: 6d9ec73dbfe950a05b6db805b7daa1cb1caa0996
Подписка на обновления:

Торренты, похожие на Вторжение гигантов скачать торрент

Форум Название Автор Размер S L Добавлен
Аниме | Rips ·· Атака Титанов / Вторжение Гигантов / Вторжение Титанов / Attack on Titan / Shingeki no Kyojin (Араки Тэцуро) [TV] [01 из 25] [Без хардсаба] [RUS(int)] [2013 г., Приключения, фантастика, драма, сёнэн, SATRip] [HWP] Galfimbul 277317722264 MB 0 0 1411486354

18:32

23-Сен-14

Аниме | Rips ·%· Вторжение гигантов (ТВ-3) / Shingeki no Kyojin Season 3 [TV] [01 из >12] [Без хардсаба] [RUS(int), JAP+SUB] [2018, приключения, фэнтези, драма, WEBRip] [HWP] Galfimbul 349024262333 MB 0 0 1533052874

19:01

31-Июл-18

Аниме | Rips ·· Вторжение гигантов: Потерянные девушки (ОВА) / Shingeki no Kyojin: Lost Girls / Attack on Titan: Lost Girls [OVA] [1 из 3] [Без хардсаба] [RUS(int), JAP+SUB] [2018, приключения, фэнтези, DVDRip] [HWP] Galfimbul 212608635203 MB 0 0 1523595667

08:01

13-Апр-18

Аниме | HD Rips ·· Вторжение Гигантов Средней Школы (ТВ) / Shingeki Kyojin Chuugakkou [TV] [12 из 12] [Без хардсаба] [RUS(ext), JAP, SUB] [2015, комедия, пародия, BDRip] [1080p] Galfimbul 98746896539.2 GB 0 0 1500863549

05:32

24-Июл-17

Аниме | HD Rips ·· Вторжение гигантов (ТВ-2) / Shingeki no Kyojin Season 2 / Attack on Titan Season 2 (Араки Тэцуро) [TV] [6 из 12] [без хардсаба] [RUS(ext), JAP+SUB] [2017, фэнтези, драма, BDRemux] [1080p] Galfimbul 4258732481339.66 GB 0 0 1499646685

03:31

10-Июл-17

Аниме | HD Rips ·· Вторжение гигантов (ТВ-2) / Shingeki no Kyojin Season 2 / Attack on Titan Season 2 (Араки Тэцуро) [TV] [1 из 12] [без хардсаба] [RUS(ext), JAP+SUB] [2017, фэнтези, драма, BDRip] [720p] Galfimbul 10559060111007 MB 0 0 1499472107

03:01

8-Июл-17

Аниме | Rips ·· Вторжение гигантов (ТВ-2) / Shingeki no Kyojin Season 2 [TV] [01-10 из 12] [Без хардсаба] [RUS(int), JAP+SUB] [2017, приключения, фэнтези, драма, HDTVRip] [HWP] Galfimbul 56260817255.24 GB 0 0 1496963522

02:12

9-Июн-17

Аниме | Rips ·· Вторжение гигантов (ТВ-2) / Shingeki no Kyojin Season 2 [TV] [01-02 из >13] [Без хардсаба] [RUS(int), JAP+SUB] [2017, приключения, фэнтези, драма, HDTVRip] [HWP] Galfimbul 11725976891.09 GB 0 0 1492025849

22:37

12-Апр-17

Аниме | Rips ·· Атака Титанов / Shingeki no Kyojin / Attack on Titan / Вторжение Гигантов [OVA] [2 из 3] [Без хардсаба] [RUS(int)] [2013 г., Приключения, ужасы, фентези, драма, DVDRip] Galfimbul 806223965769 MB 0 0 1416063911

18:05

15-Ноя-14

Аниме | Rips ·· Вторжение гигантов (Эпизод-коллаж) / Shingeki no Kyojin 13.5 - Since That Day (Араки Тэцуро) [Special] [1 из 1] [без хардсаба] [RUS(int), JAP+SUB] [2013 г., фэнтези, драма, HDTVRip] [720p] [HD] Galfimbul 940633517897 MB 0 0 1413745534

22:05

19-Окт-14

Аниме | HD Rips ·· Вторжение гигантов / Shingeki no Kyojin / Attack on Titan [TV+Special] [без хардсаба] [25+9 из 25+9] [JAP+SUB] & [25+2 из 25+9] [RUS(ext)] [2013 г., приключения, фантастика, BDRemux] [1080p] Galfimbul 194125039456180.79 GB 0 0 1413126344

18:05

12-Окт-14

Аниме | HD Rips ·· Вторжение гигантов (ТВ-1) / Shingeki no Kyojin / Attack on Titan (Араки Тэцуро) [TV] [25 из 25] [без хардсаба] [RUS(ext), JAP+SUB] [2013 г., фэнтези, драма, BDRip] [720p] Galfimbul 2965302315227.62 GB 0 0 1412755285

11:01

8-Окт-14

Аниме | HD Rips ·· Вторжения гигантов спешлы / Chimi Kyara Gekijou / Shingeki no Kyojin Picture Drama [Special] [9 из 9] [Без хардсаба] [JAP, SUB] [2014 г., Комедия, пародия, BDRip] [1080p] Galfimbul 28829847602.68 GB 0 0 1411839128

20:32

27-Сен-14

Аниме | Rips ·· Вторжение Гигантов (ОВА) / Shingeki no Kyojin [OVA] [3 из 3] [Без хардсаба] [RUS(int), JAP+SUB] [2013 г., приключения, фэнтези, драма, DVDRip] [HWP] Galfimbul 12737843581.19 GB 0 0 1409055617

15:20

26-Авг-14

Аниме | Rips ·· Вторжение гигантов / Shingeki no Kyojin / Attack on Titan [TV] [25 из 25] [Без хардсаба] [JAP+SUB] [2013 г., приключения, фэнтези, драма, BDRip] Galfimbul 67423938626.28 GB 0 0 1409054548

15:02

26-Авг-14

Манга ·· Isayama Hajime - Вторжение гигантов / Атака титанов / Shingeki no Kyojin / Attack on Titan [manga] [главы 0-55 + 3 экстра] [2009 г., экшн, сёнэн, хоррор, мистика, фэнтези, сверхъестественное, драма, трагедия] [incomplete] Galfimbul 17690810841.65 GB 0 0 1381739904

11:38

14-Окт-13

Аниме | HD Rips ·· Вторжение гигантов / Shingeki no Kyojin / Attack on Titan (Араки Тэцуро) [TV] [4 из 25] [без хардсаба] [RUS(ext), JAP+SUB] [2013 г., приключения, фантастика, BDRip] [1080p] Polarnik 103768004279.66 GB 0 0 1380227690

23:34

26-Сен-13

Аниме | Rips ·· Вторжение Гигантов / Shingeki no Kyojin / Attack on Titan [TV+Special] [01-23+1 из 25+1] [Без хардсаба] [RUS(int), JAP+SUB] [2013 г., приключения, фэнтези, драма, HDTVRip] [HWP] L 106722120999.94 GB 0 0 1380172491

08:14

26-Сен-13

Аниме | HD Rips ·· Вторжение гигантов / Shingeki no Kyojin (Араки Тэцуро) [TV+Special] [01-19+1 из XX] [Без хардсаба] [RUS(int), JAP+SUB] [2013 г., приключения, HDTVRip] [720p] Polarnik 1095381452010.2 GB 0 0 1377635651

23:34

27-Авг-13

Еще никто не оставлял запись к записи скачать торрент Вторжение гигантов . Будь первым!

!Обратная связь