Скачать через торрент Нашествие Титанов бесплатно Аниме Все серии на русском torrent

Статистика раздачи
Размер:  723 MB   |    Зарегистрирован:  2 месяца 21 день   |    .torrent скачан:  37 раз   |   
Раздают:  1  
   
загрузка...
 
Автор Сообщение

Galfimbul

avatar Galfimbul


Нашествие Титанов ОВА / Shingeki no Kyojin OVA

Страна: Япония
Год выпуска: 2013г.
Жанр: приключения, триллер, фантастика
Тип: OVA
Продолжительность: 1 эп, ~24 мин.
Режиссер: Араки Тэцуро
Студия: Wit Studio
ОВА I • Дневник Ильзы -Из архивов разведотяряда- : 49-я вылазка разведотярда за стену, одержимая Титанами капитан Ханжи Зое не терпится встретиться с ужасающими монстрами. Нарушая приказ Командира Эрвина, она всё же отправляться в погоню за необычным Титаном, в последствии чего, находит дневник Ильзы Лангнар, который по сути своей является предсмертной запиской, в которой Ильза пишет, о невероятном столкновении с необычным Титаном...
Перевод: русские субтитры [Firegorn Team]

Переводчики: Redgar-firegorn & Hiroshi-kun | Коррекция, Редактирование: Igorek1102
Редактирование, сверка с японским: UzurpatorKel
Лирика: Naru, LeoDream | Оформление, караоке: Redgar-firegorn
Доп. информация: На текущий момент по ТВ были показаны только 3 овашки(1,4-5). Первая ова находится в этой раздаче, 4 и 5 вы можете скачать здесь.
Качество: HDTVRip 720p (Source: MBS 1080i)
Тип релиза: Без хардсаба
Формат видео: MKV
Релиз/Автор рипа: [SOFCJ-Raws]
Совместимость с бытовыми плеерами: Нет
Видео: AVC (x264), 10bit, 1280x720, VFR, 26.359fps, ~4 120 kb/s
Аудио Jap: AAC, ~215kbps, 2ch, 48000Hz
Субтитры Rus: .ass | Встроенные (включенны по умолчанию)
<div class="sp-wrap">
<div class="sp-head folded">MediaInfo</div>
<div class="sp-body">

Complete name : [SOFCJ-Raws] Shingeki no Kyojin - OAD 1 (MBS 1280x720 x264 VFR 10bit AAC).mkvFormat : MatroskaFormat version : Version 4 / Version 2File size : 723 MiBDuration : 23 min 18 sOverall bit rate : 4 337 kb/sMovie name : [SOFCJ-Raws] Shingeki no Kyojin - OAD 1 (MBS 1280x720 x264 VFR 10bit AAC)Encoded date : UTC 2018-07-26 22:32:00Writing application : mkvmerge v8.3.0 ('Over the Horizon') 64bitWriting library : libebml v1.3.1 + libmatroska v1.4.2

VideoID : 1Format : AVCFormat/Info : Advanced Video CodecFormat profile : High 10@L4.1Format settings : CABAC / 9 Ref FramesFormat settings, CABAC : YesFormat settings, ReFrames : 9 framesCodec ID : V_MPEG4/ISO/AVCDuration : 23 min 18 sBit rate : 4 120 kb/sWidth : 1 280 pixelsHeight : 720 pixelsDisplay aspect ratio : 16:9Frame rate mode : VariableFrame rate : 26.359 FPSOriginal frame rate : 59.940 (60000/1001) FPSColor space : YUVChroma subsampling : 4:2:0Bit depth : 10 bitsScan type : ProgressiveBits/(Pixel*Frame) : 0.170Stream size : 687 MiB (95%)Title : MBS-720pWriting library : x264 core 152 r2851kMod ba24899Encoding settings : cabac=1 / ref=9 / deblock=1:-2:-2 / analyse=0x3:0x133 / me=umh / subme=10 / psy=1 / fade_compensate=0.00 / psy_rd=1.00:0.00 / mixed_ref=1 / me_range=24 / chroma_me=1 / trellis=2 / 8x8dct=1 / cqm=0 / deadzone=21,11 / fast_pskip=1 / chroma_qp_offset=-2 / threads=12 / lookahead_threads=3 / sliced_threads=0 / nr=0 / decimate=0 / interlaced=0 / bluray_compat=0 / constrained_intra=0 / bframes=12 / b_pyramid=2 / b_adapt=2 / b_bias=0 / direct=3 / weightb=1 / open_gop=0 / weightp=2 / keyint=250 / keyint_min=23 / scenecut=40 / intra_refresh=0 / rc_lookahead=60 / rc=crf / mbtree=1 / crf=16.0000 / qcomp=0.60 / qpmin=5 / qpmax=40 / qpstep=3 / ip_ratio=1.40 / aq=1:1.00Language : JapaneseDefault : YesForced : NoColor range : LimitedColor primaries : BT.709Transfer characteristics : BT.709Matrix coefficients : BT.709

AudioID : 2Format : AACFormat/Info : Advanced Audio CodecFormat profile : LCCodec ID : A_AAC-2Duration : 23 min 18 sBit rate : 213 kb/sChannel(s) : 2 channelsChannel positions : Front: L RSampling rate : 48.0 kHzFrame rate : 46.875 FPS (1024 SPF)Compression mode : LossyStream size : 35.6 MiB (5%)Language : JapaneseDefault : YesForced : No

TextID : 3Format : ASSCodec ID : S_TEXT/ASSCodec ID/Info : Advanced Sub Station AlphaDuration : 23 min 12 sBit rate : 464 b/sCount of elements : 341Compression mode : LosslessStream size : 79.0 KiB (0%)Title : [Firegorn Team]Language : RussianDefault : YesForced : No
File: [SOFCJ-Raws] Shingeki no Kyojin - OAD 1 (MBS 1280x720 x264 VFR 10bit AAC).mkv Duration: 00:23:19 (1398.59) Track #1: video (MBS-720p) lang: jpn (2) codc: V_MPEG4/ISO/AVC -> H264/AVC (22) reso: 1280x720 -> 16:9 fram: hybrid (vfr) rate: 4120 kbps (4120.28) dura: 00:23:19 (1398.55) size: 686.93 MB (720301496) Track #2: audio lang: jpn -> Japanese (2) codc: A_AAC -> AAC (9) chan: 2 -> Stereo samp: 48000 Hz rate: 214 kbps (213.89) dura: 00:23:18 (1398.27) size: 35.65 MB (37385482) Track #3: subtitles ([Firegorn Team]) lang: rus -> Russian (15) type: S_TEXT/ASS -> ASS (5) size: 78.99 KB (80889) Sizes: (check sanity) disk: 723.06 MB (758185568) trac: 722.66 MB (757767867) [based on track size] bitr: 722.59 MB (757694077) [based on bitrate] tdif: 407.91 KB (417701) 0.05% bdif: 479.97 KB (491490) 0.06%
</div>
</div>

Трекер:  [ 27-Июл-2018 03:01 ]

  

Скачать .torrent

Размер .torrent файла 14 KB


Размер: 723 MB
Хэш (hash) релиза: 4840250c42bf1b49dfab74ca841ca2d308ba960f
Подписка на обновления:

Торренты, похожие на Нашествие Титанов скачать торрент

Форум Название Автор Размер S L Добавлен
Аниме | HD Rips ·· Нашествие Титанов (ТВ-2) / Shingeki no Kyojin / Attack on Titan [TV] [03 из 13] [Без хардсаба] [RUS(int), JAP+SUB] [2017, Приключения, Фэнтези, Драма, Экшен, Сёнен, HDTVRip] [720p] Galfimbul 23700916312.21 GB 0 0 1492358382

18:59

16-Апр-17

Аниме | HD Rips ·· Нашествие Титанов / Shingeki no Kyojin / Attack on Titan [TV] [01 из 13] [Без хардсаба] [RUS(int), JAP] [2017, Приключения, Фэнтези, Драма, Экшен, Сёнен, HDTVRip] [720p] Galfimbul 850600720811 MB 0 0 1491312865

16:34

4-Апр-17

Аниме | Rips ·· Нашествие Титанов (ОВА) / Shingeki no Kyojin / Attack on Titan [OVA] [5 из 5] [JAP+SUB] & [2 из 5] [RUS(ext)] [Без хардсаба] [2013-2015 г. приключения, триллер, фантастика, DVDRip] Galfimbul 20083979561.87 GB 0 0 1454834023

11:33

7-Фев-16

Аниме | Rips ·· Нашествие Титанов / Shingeki no Kyojin [OVA] [5 из 5] [Без хардсаба] [RUS(int), JAP] [2013 г., Приключения, ужасы, фентези, драма, DVDRip] Galfimbul 26748118672.49 GB 0 0 1432072810

01:00

20-Май-15

Аниме | Rips ·· Нашествие Титанов / Shingeki no Kyojin / Attack on Titan [TV] [25 из 25] [Без хардсаба] [RUS(int), JAP] [2013 г., приключения, фэнтези, драма,BDRip] [720p] Galfimbul 1284965746211.97 GB 0 0 1421910837

10:13

22-Янв-15

Аниме | HD Rips ·· Нашествие Титанов / Shingeki no Kyojin / Attack on Titan [OVA] [4 из 5] [Без хардсаба] [RUS(int), JAP] [2013 г., приключения, фэнтези, драма,DVDRip] Galfimbul 19102981761.78 GB 0 0 1420811443

16:50

9-Янв-15

Аниме | Rips ·· Нашествие Титанов (ОВА) / Shingeki no Kyojin / Attack on Titan [OVA] [4 из 5] [JAP+SUB] & [2 из 5] [RUS(ext)] [Без хардсаба] [2013-2014 г. приключения, триллер, фантастика, DVDRip] Galfimbul 15960230831.49 GB 0 0 1419713431

23:50

27-Дек-14

Аниме | HD Rips ·· Нашествие Титанов / Shingeki no Kyojin / Attack on Titan [TV] [Без хардсаба] [25 из 25] [JAP+SUB] & [8 из 25] [RUS(ext)] [2013 г. приключения, комедия, фэнтези, сёнэн, BDRip] [1080p] Galfimbul 6264649157158.34 GB 0 0 1412946534

16:08

10-Окт-14

Аниме | Rips ·· Нашествие Титанов / Shingeki no Kyojin / Attack on Titan [TV] [25 из 25] [Без хардсаба] [RUS(ext), JAP+SUB] [2013 г., приключения, комедия, фэнтези, сёнэн, BDRip] [1080p] Galfimbul 3230211422130.08 GB 0 0 1412251311

15:01

2-Окт-14

Аниме | Rips ·· Нашествие Титанов (ОВА) / Shingeki no Kyojin [OVA] [3 из 3] [JAP+SUB] & [2 из 3] [RUS(ext)] [Без хардсаба] [2013-2014 г. приключения, триллер, фантастика, DVDRip] Galfimbul 19937608561.86 GB 0 0 1409742053

14:00

3-Сен-14

Аниме | HD Rips ·· Нашествие Титанов / Shingeki no Kyojin / Attack on Titan [TV+Special] [Без хардсаба] [25+1 из 25+1] [JAP+SUB] & [25+0 из 25+1] [RUS(ext)] [2013 г., приключения, триллер, фантастика, HDTVRip] [720p] Galfimbul 1460898720513.61 GB 0 0 1391617877

19:31

5-Фев-14

Еще никто не оставлял запись к записи скачать торрент Нашествие Титанов . Будь первым!

!Обратная связь