Скачать через торрент Рик и Морти Rick and Morty Фильм бесплатно в хорошем качестве torrent

Скачивайте на UnionPeer.org фильмы через торрент без регистрации. Новинки кино в хорошем качестве через торрент. На UnionPeer.org можно скачать через торрент фильмы 2014 и 2015 годов. Самые новые фильмы.

Скачать торрент Рик и Морти Rick and Morty бесплатно через .torrent фильм мультфильм сериал

Статистика раздачи
Размер:  10.93 GB   |    Зарегистрирован:  4 месяца 21 день   |    .torrent скачан:  84 раза   |   
Раздают:  1  
   
загрузка...
 
Автор Сообщение

Galfimbul

avatar Galfimbul


Рик и Морти / Rick and Morty
Год выпуска: 2013-2017
Страна: США
Жанр: Мультфильм, комедия, фантастика
Продолжительность: ~00:22:00
Перевод: Профессиональный (одноголосый закадровый) | Сыендук
Режиссёр: Пит Мишелс, Уэсли Арчер, Брайан Ньютон
В ролях: Джастин Ройланд, Спенсер Грэммер, Сара Чок, Крис Парнелл, Эрик Бауза, Дэн Хэрмон, Фил Хендри, Брэндон Джонсон, Райан Ридли, Кари Уолгрен
Описание: В центре сюжета — школьник по имени Морти и его дедушка Рик. Морти — самый обычный мальчик, который ничем не отличается от своих сверстников. А вот его дедуля занимается необычными научными исследованиями и зачастую полностью неадекватен. Он может в любое время дня и ночи схватить внука и отправиться вместе с ним в межпространственные приключения с помощью построенной из разного хлама летающей тарелки, которая способна перемещаться сквозь временной тоннель. Каждый раз эта парочка оказывается в самых неожиданных местах и самых нелепых ситуациях.

<div class="post-box-default">
<div class="post-box" style="border-color: #d2d2d2; background: #000000;">Ссылка на предыдущие и альтернативные раздачи</div>
</div>
Качество: BDRip (BDRemux 1080p)
Формат: AVI
Видео: XviD, 720x400, 23,976 fps, ~2000 kbps
Аудио #1: 48 kHz, MPEG Layer 3, 2 ch, ~128.00 kbps | Rus
Аудио #2: 48 kHz, MPEG Layer 3, 2 ch, ~128.00 kbps | Eng
Субтитры: нет
Format : AVI
Format/Info : Audio Video Interleave
File size : 358 MiB
Duration : 22 min 1 s
Overall bit rate : 2 270 kb/s
Writing application : VirtualDubMod 1.5.10.2 (build 2540/release)

Video
ID : 0
Format : MPEG-4 Visual
Format profile : Advanced Simple@L5
Format settings : BVOP1 / Custom Matrix
Format settings, BVOP : 1
Format settings, QPel : No
Format settings, GMC : No warppoints
Format settings, Matrix : Custom
Codec ID : XVID
Codec ID/Hint : XviD
Duration : 22 min 1 s
Bit rate : 2 000 kb/s
Width : 720 pixels
Height : 400 pixels
Display aspect ratio : 16:9
Frame rate : 23.976 (24000/1001) FPS
Color space : YUV
Chroma subsampling : 4:2:0
Bit depth : 8 bits
Scan type : Progressive
Compression mode : Lossy
Bits/(Pixel*Frame) : 0.290
Stream size : 315 MiB (88%)
Writing library : XviD 73

Audio #1
ID : 1
Format : MPEG Audio
Format version : Version 1
Format profile : Layer 3
Format settings : Joint stereo
Codec ID : 55
Codec ID/Hint : MP3
Duration : 22 min 1 s
Bit rate mode : Constant
Bit rate : 128 kb/s
Channel(s) : 2 channels
Sampling rate : 48.0 kHz
Compression mode : Lossy
Stream size : 20.2 MiB (6%)
Alignment : Split accross interleaves
Interleave, duration : 42 ms (1.00 video frame)
Interleave, preload duratio : 500 ms

Audio #2
ID : 2
Format : MPEG Audio
Format version : Version 1
Format profile : Layer 3
Format settings : Joint stereo
Codec ID : 55
Codec ID/Hint : MP3
Duration : 22 min 1 s
Bit rate mode : Constant
Bit rate : 128 kb/s
Channel(s) : 2 channels
Sampling rate : 48.0 kHz
Compression mode : Lossy
Stream size : 20.2 MiB (6%)
Alignment : Split accross interleaves
Interleave, duration : 42 ms (1.00 video frame)
Interleave, preload duratio : 500 ms
<div class="sp-wrap">
<div class="sp-head folded">Скриншоты</div>
<div class="sp-body">
</div>
</div>


Трекер:  [ 27-Июл-2018 15:24 ]

  

Скачать .torrent

Размер .torrent файла 57 KB


Размер: 10.93 GB
Хэш (hash) релиза: 89ca530b1e1dcb74d8741eeb6ee2951ff5acec07
Подписка на обновления:

Еще никто не оставлял запись к записи скачать торрент Рик и Морти Rick and Morty . Будь первым!

!Обратная связь