Скачать через торрент 700 Акул 700 Sharks Фильм бесплатно в хорошем качестве torrent

Скачивайте на UnionPeer.org фильмы через торрент без регистрации. Новинки кино в хорошем качестве через торрент. На UnionPeer.org можно скачать через торрент фильмы 2014 и 2015 годов. Самые новые фильмы.

Скачать торрент 700 Акул 700 Sharks бесплатно через .torrent фильм мультфильм сериал

Статистика раздачи
Размер:  2.26 GB   |    Зарегистрирован:  3 месяца 19 дней   |    .torrent скачан:  44 раза   |   
Раздают:  1  
   
загрузка...
 
Автор Сообщение

Galfimbul

avatar Galfimbul


700 Акул / 700 Sharks

Год выпуска: 2018
Страна: Франция
Студия: Le Cinquieme Reve
Жанр: Документальный
Продолжительность: 00:43:52
Перевод: Студийный (одноголосый закадровый)
Доп. инфо о переводе: Велес / Вадим Прохоров
Русские субтитры: нет

Режиссер: Люк Марескот / Luc Marescot

Описание:

В Полинезии группа ученых намерена изучать повадки акул, проводя свои беспрецедентные по масштабам эксперименты среди популяции акул из 700 особей.
Сэмпл: http://multi-up.com/1204801

Тип релиза: HDTV 1080i
Контейнер: TS

Видео: AVC, 1920x1080, (16:9), 25 fps, 6 638 kb/s
Аудио: Russian, MP2, 48 kHz, 2 ch; 192 kbps
Аудио 2: English, MP2, 48 kHz, 2 ch; 192 kbps
GeneralID : 1 (0x1)Complete name F: 700 Акул_HDTV 1080i_RUS_ENG-dds.tsFormat : MPEG-TSFile size : 2.26 GiBDuration : 43 min 52 sOverall bit rate mode : VariableOverall bit rate : 7 391 kb/s

VideoID : 201 (0xC9)Menu ID : 20101 (0x4E85)Format : AVCFormat/Info : Advanced Video CodecFormat profile : High@L4Format settings : CABAC / 4 Ref FramesFormat settings, CABAC : YesFormat settings, RefFrames : 4 framesCodec ID : 27Duration : 43 min 52 sBit rate : 6 638 kb/sWidth : 1 920 pixelsHeight : 1 080 pixelsDisplay aspect ratio : 16:9Frame rate : 25.000 FPSStandard : ComponentColor space : YUVChroma subsampling : 4:2:0Bit depth : 8 bitsScan type : InterlacedScan type, store method : Separated fieldsScan order : Top Field FirstBits/(Pixel*Frame) : 0.128Stream size : 2.03 GiB (90%)Color range : LimitedColor primaries : BT.709Transfer characteristics : BT.709Matrix coefficients : BT.709

Audio #1ID : 301 (0x12D)Menu ID : 20101 (0x4E85)Format : MPEG AudioFormat version : Version 1Format profile : Layer 2Codec ID : 3Duration : 43 min 52 sBit rate mode : ConstantBit rate : 192 kb/sChannel(s) : 2 channelsSampling rate : 48.0 kHzFrame rate : 41.667 FPS (1152 SPF)Compression mode : LossyDelay relative to video : -40 msStream size : 60.2 MiB (3%)Language : Russian

Audio #2ID : 401 (0x191)Menu ID : 20101 (0x4E85)Format : MPEG AudioFormat version : Version 1Format profile : Layer 2Codec ID : 3Duration : 43 min 52 sBit rate mode : ConstantBit rate : 192 kb/sChannel(s) : 2 channelsSampling rate : 48.0 kHzFrame rate : 41.667 FPS (1152 SPF)Compression mode : LossyDelay relative to video : -40 msStream size : 60.2 MiB (3%)Language : English


Трекер:  [ 27-Июл-2018 16:06 ]

  

Скачать .torrent

Размер .torrent файла 11 KB


Размер: 2.26 GB
Хэш (hash) релиза: 3cf58b96d41854f817f505e90f7536d8cc409441
Подписка на обновления:

Еще никто не оставлял запись к записи скачать торрент 700 Акул 700 Sharks . Будь первым!

!Обратная связь