Скачать через торрент Дикий рай Индии Indias Wild Edens Фильм бесплатно в хорошем качестве torrent

Скачивайте на UnionPeer.org фильмы через торрент без регистрации. Новинки кино в хорошем качестве через торрент. На UnionPeer.org можно скачать через торрент фильмы 2014 и 2015 годов. Самые новые фильмы.

Скачать торрент Дикий рай Индии Indias Wild Edens бесплатно через .torrent фильм мультфильм сериал

Статистика раздачи
Размер:  2.49 GB   |    Зарегистрирован:  1 месяц 25 дней   |    .torrent скачан:  46 раз   |   
Раздают:  1  
   
загрузка...
 
Автор Сообщение

Galfimbul

avatar Galfimbul


Дикий рай Индии / India's Wild Edens

Год выпуска: 2016
Страна: Великобритания
Студия: Off the Fence
Жанр: Документальный
Продолжительность: 00:44:04
Перевод: Студийный (одноголосый закадровый)
Доп. инфо о переводе: Велес / Олeг Белов
Русские субтитры: нет

Режиссер: Ральф Бауэр / Ralph Bower

Описание:

Индия: экстремальная, захватывающая дух, процветающая земля. Огромная, полная контрастов территория, где можно найти и знойные пустыни, и зеленые леса и покрытые снегом горные вершины.

Сэмпл: http://multi-up.com/1204882

Тип релиза: HDTV 1080i
Контейнер: TS

Видео: AVC, 1920x1080, (16:9), 25 fps, 7 292 kb/s
Аудио: Russian, MP2, 48 kHz, 2 ch; 192 kbps
Аудио 2: English, MP2, 48 kHz, 2 ch; 192 kbps
GeneralID : 1 (0x1)Complete name : F:\Дикий рай Индии_HDTV 1080i_RUS_ENG-dds.tsFormat : MPEG-TSFile size : 2.49 GiBDuration : 44 min 4 sOverall bit rate mode : VariableOverall bit rate : 8 080 kb/s

VideoID : 201 (0xC9)Menu ID : 20101 (0x4E85)Format : AVCFormat/Info : Advanced Video CodecFormat profile : High@L4Format settings : CABAC / 4 Ref FramesFormat settings, CABAC : YesFormat settings, RefFrames : 4 framesCodec ID : 27Duration : 44 min 4 sBit rate : 7 292 kb/sWidth : 1 920 pixelsHeight : 1 080 pixelsDisplay aspect ratio : 16:9Frame rate : 25.000 FPSStandard : ComponentColor space : YUVChroma subsampling : 4:2:0Bit depth : 8 bitsScan type : InterlacedScan type, store method : Separated fieldsScan order : Top Field FirstBits/(Pixel*Frame) : 0.141Stream size : 2.24 GiB (90%)Color range : LimitedColor primaries : BT.709Transfer characteristics : BT.709Matrix coefficients : BT.709

Audio #1ID : 301 (0x12D)Menu ID : 20101 (0x4E85)Format : MPEG AudioFormat version : Version 1Format profile : Layer 2Codec ID : 3Duration : 44 min 4 sBit rate mode : ConstantBit rate : 192 kb/sChannel(s) : 2 channelsSampling rate : 48.0 kHzFrame rate : 41.667 FPS (1152 SPF)Compression mode : LossyStream size : 60.5 MiB (2%)Language : Russian

Audio #2ID : 401 (0x191)Menu ID : 20101 (0x4E85)Format : MPEG AudioFormat version : Version 1Format profile : Layer 2Codec ID : 3Duration : 44 min 4 sBit rate mode : ConstantBit rate : 192 kb/sChannel(s) : 2 channelsSampling rate : 48.0 kHzFrame rate : 41.667 FPS (1152 SPF)Compression mode : LossyStream size : 60.5 MiB (2%)Language : English


Трекер:  [ 28-Июл-2018 14:06 ]

  

Скачать .torrent

Размер .torrent файла 13 KB


Размер: 2.49 GB
Хэш (hash) релиза: 209650fdbb8a6f9793ca3d73feb1a6e15d48e69d
Подписка на обновления:

Еще никто не оставлял запись к записи скачать торрент Дикий рай Индии Indias Wild Edens . Будь первым!

!Обратная связь