Скачать через торрент [VIDEO] Тихоокеанский рубеж 2 Pacific Rim: Uprising бесплатно русская версия torrent активатор

Статистика раздачи
Размер:  504 MB   |    Зарегистрирован:  4 месяца 15 дней   |    .torrent скачан:  21 раз   |   
Раздают:  1  
   
загрузка...
 
Автор Сообщение

Galfimbul

avatar Galfimbul


Тихоокеанский рубеж 2 / Pacific Rim: Uprising


Год выпуска: 2018
Страна: США, Китай, Великобритания
Жанр: фантастика, боевик, приключения
Продолжительность: 01:50:42
Перевод: русский Профессиональный (полное дублирование) Blu-Ray EUR
Субтитры: нет
Режиссер: Стивен С. ДеНайт / Steven S. DeKnight
В ролях: Джон Бойега, Скотт Иствуд, Кэйли Спэни, Берн Горман, Чарли Дэй, Тянь Цзин, Макс Чжан, Адриа Архона, Ринко Кикучи, Каран Брэр, Уэсли Вон, Иванна Сахно, Макэню Арата, Лили Цзи, Ширли Родригес и другие .
Описание: Команда пилотируемых роботов-защитников остановила вторжение гигантских инопланетных монстров. Великая битва за Тихоокеанский рубеж ознаменовала новую главу в истории человечества. Однако война только начинается…
Пришло время нового поколения отстаивать своё право на Землю .

Релиз группы

Качество: BDRip / рип с Blu-ray disc 1080p [EUR]
Формат: MP4
Видео кодек: XviD
Аудио кодек: AAC
Видео: 480x200 AR:2.40 505 kbps 23.976 fps
Аудио: [Russian] 2ch 48 kHz 128 kbps - [Dub] Профессиональный (полное дублирование) Blu-Ray EUR
GeneralComplete name : K:\Torrents\Pacific Rim Uprising.2018.BDRip.XviD.480x.rip by Frost O.S.mp4Format : MPEG-4Format profile : 3GPP Media Release 5Codec ID : 3gp5 (isom/3gp5/3gp4/mp41/mp42)File size : 504 MiBDuration : 1 h 50 minOverall bit rate mode : VariableOverall bit rate : 637 kb/sEncoded date : UTC 2018-07-28 15:36:56Tagged date : UTC 2018-07-28 15:36:56

VideoID : 1Format : MPEG-4 VisualFormat profile : Advanced Simple@L5Format settings : BVOP / Custom MatrixFormat settings, BVOP : YesFormat settings, QPel : NoFormat settings, GMC : No warppointsFormat settings, Matrix : CustomCodec ID : mp4v-20Duration : 1 h 50 minBit rate mode : VariableBit rate : 505 kb/sMaximum bit rate : 2 513 kb/sWidth : 480 pixelsHeight : 200 pixelsDisplay aspect ratio : 2.40:1Frame rate mode : VariableFrame rate : 23.976 (24000/1001) FPSMinimum frame rate : 11.988 FPSMaximum frame rate : 23.976 FPSColor space : YUVChroma subsampling : 4:2:0Bit depth : 8 bitsScan type : ProgressiveCompression mode : LossyBits/(Pixel*Frame) : 0.219Stream size : 400 MiB (79%)Title : avi@GPAC0.5.2-DEV-rev248-g39d5978-masterWriting library : XviD 1.2.1 (UTC 2008-12-04)Encoded date : UTC 2018-07-28 10:59:16Tagged date : UTC 2018-07-28 15:37:00

AudioID : 2Format : AACFormat/Info : Advanced Audio CodecFormat profile : LCCodec ID : mp4a-40-2Duration : 1 h 50 minBit rate mode : VariableBit rate : 128 kb/sMaximum bit rate : 136 kb/sChannel(s) : 2 channelsChannel positions : Front: L RSampling rate : 48.0 kHzFrame rate : 46.875 FPS (1024 SPF)Compression mode : LossyStream size : 101 MiB (20%)Title : Russian / Dub, Blu-Ray EUREncoded date : UTC 2018-07-28 14:37:29Tagged date : UTC 2018-07-28 15:37:00


Трекер:  [ 28-Июл-2018 19:36 ]

  

Скачать .torrent

Размер .torrent файла 20 KB


Размер: 504 MB
Хэш (hash) релиза: d3cee7f4db78c9b4698a3b6ae6a4f2f9354eb217

Еще никто не оставлял запись к записи скачать торрент [VIDEO] Тихоокеанский рубеж 2 Pacific Rim: Uprising . Будь первым!

!Обратная связь