Скачать через торрент [VIDEO] Тихоокеанский рубеж: Дилогия Pacific Rim: Dilogy бесплатно русская версия torrent активатор

Статистика раздачи
Размер:  6.06 GB   |    Зарегистрирован:  2 месяца 19 дней   |    .torrent скачан:  17 раз   |   
Раздают:  1  
   
загрузка...
 
Автор Сообщение

Galfimbul

avatar Galfimbul


Тихоокеанский рубеж: Дилогия / Pacific Rim: Dilogy
Тихоокеанский рубеж / Pacific Rim


Год выпуска: 2013
Страна: США
Жанр: фантастика, боевик, приключения
Продолжительность: 02:11:17
Перевод №1: русский Профессиональный (полное дублирование) Blu-Ray CEE
Перевод №2: украинский Профессиональный (полное дублирование) Blu-Ray CEE
Перевод №3: русский Авторский (одноголосый, закадровый) Ю.Сербин
Перевод №4: русский Авторский (одноголосый, закадровый) Л.Володарский
Оригинальная дорожка: Есть
Субтитры: русские (форсированные iTunes), (iTunes), украинские (форсированные iTunes), (iTunes), английские (полные), (SDH), (SDH Colored)
Режиссер: Гильермо дель Торо / Guillermo del Toro
В ролях: Чарли Ханнэм, Рон Перлман, Идрис Эльба, Диего Клаттенхофф, Чарли Дэй, Берн Горман, Клифтон Коллинз мл., Ринко Кикучи, Роберт Мэйллет, Макс Мартини и другие .
Описание: Когда из морских глубин поднялись легионы чудовищ, известных как Кайдзу, началась война, которой суждено было забрать миллионы жизней и свести «человеческие ресурсы» почти к нулю всего за несколько лет. Чтобы сражаться с пришельцами, было создано специальное оружие: огромные роботы, названные Джегерами, они управлялись одновременно двумя пилотами, чьи сознания соединены с помощью нейронной связи. Но даже Джегеры оказываются почти бессильны перед лицом безжалостных Кайдзу. На грани поражения у защитников человечества нет выбора, кроме как обратиться к двум весьма сомнительным героям — никому не нужному бывшему пилоту и неопытному стажеру — которые объединились, чтобы повести в бой некогда легендарного, но сейчас устаревшего Джегера. Вместе они оказываются единственной надеждой человечества, последним препятствием перед надвигающимся апокалипсисом .
Релиз группы

Качество: BDRip / рип с Blu-ray disc 1080p [CEE]
Формат: MP4
Видео кодек: H.264
Аудио кодек: AAC
Видео: 1280x720 AR:1.78 3000 kbps 23.976 fps
Аудио №1: [Russian] 2ch 48 kHz 128 kbps - [Dub] Профессиональный (полное дублирование) Blu-Ray CEE
Аудио №2: [Ukrainian] 2ch 48 kHz 128 kbps - [Dub] Профессиональный (полное дублирование) Blu-Ray CEE
Аудио №3: [Russian] 2ch 48 kHz 128 kbps - [VO] Авторский (одноголосый, закадровый) Ю.Сербин
Аудио №4: [Russian] 2ch 48 kHz 128 kbps - [VO] Авторский (одноголосый, закадровый) Л.Володарский
Аудио №5: [English] 2ch 48 kHz 128 kbps - Original
<div class="sp-wrap">
<div class="sp-head folded">Logx264</div>
<div class="sp-body">avs [info]: 1280x720p 1:1 @ 24000/1001 fps (cfr)
x264 [info]: using SAR=1/1
x264 [warning]: DPB size (10 frames, 36000 mbs) > level limit (9 frames, 32768 mbs)
x264 [info]: using cpu capabilities: MMX2 SSE2Fast SSSE3 SSE4.2 AVX FMA3 BMI2 AVX2
x264 [info]: profile High, level 4.1

x264 [info]: frame I:1536 Avg QP:18.65 size: 76471
x264 [info]: frame P:57309 Avg QP:23.67 size: 26131
x264 [info]: frame B:130012 Avg QP:25.07 size: 10241
x264 [info]: consecutive B-frames: 6.8% 7.5% 16.4% 39.1% 12.9% 13.9% 1.9% 0.8% 0.6%
x264 [info]: mb I I16..4: 12.1% 70.9% 17.1%
x264 [info]: mb P I16..4: 3.4% 17.7% 1.9% P16..4: 41.3% 16.9% 7.8% 0.0% 0.0% skip:10.9%
x264 [info]: mb B I16..4: 0.4% 2.0% 0.2% B16..8: 39.8% 9.7% 2.1% direct: 5.8% skip:40.0% L0:45.0% L1:46.3% BI: 8.7%
x264 [info]: 8x8 transform intra:76.6% inter:72.3%
x264 [info]: direct mvs spatial:95.1% temporal:4.9%
x264 [info]: coded y,uvDC,uvAC intra: 65.1% 67.7% 34.9% inter: 20.2% 21.7% 7.6%
x264 [info]: i16 v,h,dc,p: 33% 17% 8% 43%
x264 [info]: i8 v,h,dc,ddl,ddr,vr,hd,vl,hu: 9% 7% 10% 9% 14% 13% 14% 11% 12%
x264 [info]: i4 v,h,dc,ddl,ddr,vr,hd,vl,hu: 10% 8% 6% 9% 15% 14% 14% 10% 13%
x264 [info]: i8c dc,h,v,p: 38% 24% 18% 19%
x264 [info]: Weighted P-Frames: Y:17.7% UV:13.8%
x264 [info]: ref P L0: 52.8% 11.6% 14.7% 5.8% 4.4% 3.1% 2.6% 1.5% 1.5% 1.5% 0.4% 0.1%
x264 [info]: ref B L0: 78.1% 9.6% 4.7% 2.3% 2.0% 1.4% 1.0% 0.6% 0.3%
x264 [info]: ref B L1: 96.1% 3.9%
x264 [info]: kb/s:2992.42

encoded 188857 frames, 9.94 fps, 2992.42 kb/s
GeneralComplete name : K:\Torrents\Pacific Rim Dilogy.2013-2018.BDRip.x264.1280x\Pacific Rim.2013.BDRip.x264.1280x.rip by Frost O.S.mp4Format : MPEG-4Format profile : 3GPP Release 6 GeneralCodec ID : 3gg6 (isom/3gg6/mp42)File size : 3.34 GiBDuration : 2 h 11 minOverall bit rate mode : VariableOverall bit rate : 3 644 kb/sEncoded date : UTC 2018-07-28 14:59:40Tagged date : UTC 2018-07-28 14:59:40Writing application : Yamb 2.1.0.0

VideoID : 1Format : AVCFormat/Info : Advanced Video CodecFormat profile : High@L4.1Format settings : CABAC / 10 Ref FramesFormat settings, CABAC : YesFormat settings, RefFrames : 10 framesCodec ID : avc1Codec ID/Info : Advanced Video CodingDuration : 2 h 11 minBit rate : 3 000 kb/sMaximum bit rate : 10.1 Mb/sWidth : 1 280 pixelsHeight : 720 pixelsDisplay aspect ratio : 16:9Frame rate mode : ConstantFrame rate : 23.976 (24000/1001) FPSColor space : YUVChroma subsampling : 4:2:0Bit depth : 8 bitsScan type : ProgressiveBits/(Pixel*Frame) : 0.136Stream size : 2.74 GiB (82%)Writing library : x264 core 152 r2851 ba24899Encoding settings : cabac=1 / ref=10 / deblock=1:-2:-1 / analyse=0x3:0x113 / me=umh / subme=10 / psy=1 / psy_rd=1.00:0.00 / mixed_ref=1 / me_range=32 / chroma_me=1 / trellis=2 / 8x8dct=1 / cqm=0 / deadzone=21,11 / fast_pskip=0 / chroma_qp_offset=-2 / threads=6 / lookahead_threads=1 / sliced_threads=0 / nr=0 / decimate=0 / interlaced=0 / bluray_compat=0 / constrained_intra=0 / bframes=8 / b_pyramid=2 / b_adapt=2 / b_bias=0 / direct=3 / weightb=1 / open_gop=0 / weightp=2 / keyint=250 / keyint_min=23 / scenecut=40 / intra_refresh=0 / rc=2pass / mbtree=0 / bitrate=3000 / ratetol=1.0 / qcomp=0.60 / qpmin=0 / qpmax=69 / qpstep=4 / cplxblur=20.0 / qblur=0.5 / ip_ratio=1.40 / pb_ratio=1.30 / aq=3:0.90 / zones=179900,188701,q=30Encoded date : UTC 2018-07-26 15:16:09Tagged date : UTC 2018-07-28 15:00:48Color range : LimitedColor primaries : BT.709Transfer characteristics : BT.709Matrix coefficients : BT.709

Audio #1ID : 2Format : AACFormat/Info : Advanced Audio CodecFormat profile : LCCodec ID : mp4a-40-2Duration : 2 h 11 minBit rate mode : VariableBit rate : 128 kb/sMaximum bit rate : 138 kb/sChannel(s) : 2 channelsChannel positions : Front: L RSampling rate : 48.0 kHzFrame rate : 46.875 FPS (1024 SPF)Compression mode : LossyStream size : 120 MiB (4%)Title : Russian / Dub, Blu-Ray CEEEncoded date : UTC 2018-07-28 14:08:34Tagged date : UTC 2018-07-28 15:00:48

Audio #2ID : 3Format : AACFormat/Info : Advanced Audio CodecFormat profile : LCCodec ID : mp4a-40-2Duration : 2 h 11 minBit rate mode : VariableBit rate : 128 kb/sMaximum bit rate : 138 kb/sChannel(s) : 2 channelsChannel positions : Front: L RSampling rate : 48.0 kHzFrame rate : 46.875 FPS (1024 SPF)Compression mode : LossyStream size : 120 MiB (4%)Title : Ukrainian / Dub, Blu-Ray CEEEncoded date : UTC 2018-07-28 14:13:04Tagged date : UTC 2018-07-28 15:00:48

Audio #3ID : 4Format : AACFormat/Info : Advanced Audio CodecFormat profile : LCCodec ID : mp4a-40-2Duration : 2 h 11 minBit rate mode : VariableBit rate : 128 kb/sMaximum bit rate : 136 kb/sChannel(s) : 2 channelsChannel positions : Front: L RSampling rate : 48.0 kHzFrame rate : 46.875 FPS (1024 SPF)Compression mode : LossyStream size : 120 MiB (4%)Title : Russian / VO, SerbinEncoded date : UTC 2018-07-28 14:51:27Tagged date : UTC 2018-07-28 15:00:48

Audio #4ID : 5Format : AACFormat/Info : Advanced Audio CodecFormat profile : LCCodec ID : mp4a-40-2Duration : 2 h 11 minBit rate mode : VariableBit rate : 128 kb/sMaximum bit rate : 138 kb/sChannel(s) : 2 channelsChannel positions : Front: L RSampling rate : 48.0 kHzFrame rate : 46.875 FPS (1024 SPF)Compression mode : LossyStream size : 120 MiB (4%)Title : Russian / VO, VolodarskiyEncoded date : UTC 2018-07-28 14:29:23Tagged date : UTC 2018-07-28 15:00:48

Audio #5ID : 6Format : AACFormat/Info : Advanced Audio CodecFormat profile : LCCodec ID : mp4a-40-2Duration : 2 h 11 minBit rate mode : VariableBit rate : 128 kb/sMaximum bit rate : 137 kb/sChannel(s) : 2 channelsChannel positions : Front: L RSampling rate : 48.0 kHzFrame rate : 46.875 FPS (1024 SPF)Compression mode : LossyStream size : 120 MiB (4%)Title : English / OriginalEncoded date : UTC 2018-07-28 14:03:58Tagged date : UTC 2018-07-28 15:00:48

Text #1ID : 7Format : Timed TextCodec ID : tx3gDuration : 2 h 11 minBit rate mode : VariableBit rate : 2 b/sStream size : 2.16 KiB (0%)Title : Russian / Forced iTunesForced : NoEncoded date : UTC 2018-07-28 15:00:48Tagged date : UTC 2018-07-28 15:00:48

Text #2ID : 8Format : Timed TextCodec ID : tx3gDuration : 2 h 11 minBit rate mode : VariableBit rate : 74 b/sStream size : 71.0 KiB (0%)Title : Russian / iTunesForced : NoEncoded date : UTC 2018-07-28 15:00:48Tagged date : UTC 2018-07-28 15:00:48

Text #3ID : 9Format : Timed TextCodec ID : tx3gDuration : 2 h 11 minBit rate mode : VariableBit rate : 3 b/sStream size : 2.62 KiB (0%)Title : Ukrainian / Forced iTunesForced : NoEncoded date : UTC 2018-07-28 15:00:48Tagged date : UTC 2018-07-28 15:00:48

Text #4ID : 10Format : Timed TextCodec ID : tx3gDuration : 2 h 11 minBit rate mode : VariableBit rate : 93 b/sStream size : 89.7 KiB (0%)Title : Ukrainian / iTunesForced : NoEncoded date : UTC 2018-07-28 15:00:48Tagged date : UTC 2018-07-28 15:00:48

Text #5ID : 11Format : Timed TextCodec ID : tx3gDuration : 2 h 5 minBit rate mode : VariableBit rate : 68 b/sStream size : 62.5 KiB (0%)Title : English / FullForced : NoEncoded date : UTC 2018-07-28 15:00:48Tagged date : UTC 2018-07-28 15:00:48

Text #6ID : 12Format : Timed TextCodec ID : tx3gDuration : 2 h 11 minBit rate mode : VariableBit rate : 72 b/sStream size : 68.9 KiB (0%)Title : English / SDHForced : NoEncoded date : UTC 2018-07-28 15:00:48Tagged date : UTC 2018-07-28 15:00:48

Text #7ID : 13Format : Timed TextCodec ID : tx3gDuration : 2 h 11 minBit rate mode : VariableBit rate : 81 b/sStream size : 78.3 KiB (0%)Title : English / SDH ColoredForced : NoEncoded date : UTC 2018-07-28 15:00:48Tagged date : UTC 2018-07-28 15:00:48
</div>
</div>
Тихоокеанский рубеж 2 / Pacific Rim: Uprising


Год выпуска: 2018
Страна: США, Китай, Великобритания
Жанр: фантастика, боевик, приключения
Продолжительность: 01:50:42
Перевод №1: русский Профессиональный (полное дублирование) Blu-Ray EUR
Перевод №2: украинский Профессиональный (полное дублирование) студия LeDoyen
Перевод №3: русский Любительский (многоголосый, закадровый) HDrezka Studio
Оригинальная дорожка: Есть
Субтитры: русские (форсированные), (iTunes), украинские (форсированные), английские (полные), (SDH)
Режиссер: Стивен С. ДеНайт / Steven S. DeKnight
В ролях: Джон Бойега, Скотт Иствуд, Кэйли Спэни, Берн Горман, Чарли Дэй, Тянь Цзин, Макс Чжан, Адриа Архона, Ринко Кикучи, Каран Брэр, Уэсли Вон, Иванна Сахно, Макэню Арата, Лили Цзи, Ширли Родригес и другие .
Описание: Команда пилотируемых роботов-защитников остановила вторжение гигантских инопланетных монстров. Великая битва за Тихоокеанский рубеж ознаменовала новую главу в истории человечества. Однако война только начинается…
Пришло время нового поколения отстаивать своё право на Землю .

Релиз группы

Качество: BDRip / рип с Blu-ray disc 1080p [EUR]
Формат: MP4
Видео кодек: H.264
Аудио кодек: AAC
Видео: 1280x532 AR:2.41 3000 kbps 23.976 fps
Аудио №1: [Russian] 2ch 48 kHz 128 kbps - [Dub] Профессиональный (полное дублирование) Blu-Ray EUR
Аудио №2: [Ukrainian] 2ch 48 kHz 128 kbps - [Dub] Профессиональный (полное дублирование) студия LeDoyen
Аудио №3: [Russian] 2ch 48 kHz 128 kbps - [MVO] Любительский (многоголосый, закадровый) HDrezka Studio
Аудио №4: [English] 2ch 48 kHz 128 kbps - Original
<div class="sp-wrap">
<div class="sp-head folded">Logx264</div>
<div class="sp-body">avs [info]: 1280x532p 1:1 @ 24000/1001 fps (cfr)
x264 [info]: using SAR=1/1
x264 [info]: using cpu capabilities: MMX2 SSE2Fast SSSE3 SSE4.2 AVX FMA3 BMI2 AVX2
x264 [info]: profile High, level 4.1

x264 [info]: frame I:1419 Avg QP:18.77 size: 90492
x264 [info]: frame P:45488 Avg QP:22.81 size: 26464
x264 [info]: frame B:112346 Avg QP:24.25 size: 10298
x264 [info]: consecutive B-frames: 6.0% 6.6% 20.6% 22.1% 13.5% 26.1% 3.3% 0.7% 0.6% 0.5%
x264 [info]: mb I I16..4: 5.7% 76.1% 18.2%
x264 [info]: mb P I16..4: 1.7% 13.0% 2.5% P16..4: 36.7% 34.0% 7.2% 0.0% 0.0% skip: 4.9%
x264 [info]: mb B I16..4: 0.2% 2.0% 0.4% B16..8: 38.3% 17.9% 2.3% direct: 5.3% skip:33.7% L0:46.1% L1:44.8% BI: 9.1%
x264 [info]: 8x8 transform intra:76.3% inter:68.6%
x264 [info]: direct mvs spatial:96.6% temporal:3.4%
x264 [info]: coded y,uvDC,uvAC intra: 81.0% 84.6% 61.1% inter: 22.6% 29.6% 16.3%
x264 [info]: i16 v,h,dc,p: 13% 14% 2% 70%
x264 [info]: i8 v,h,dc,ddl,ddr,vr,hd,vl,hu: 8% 5% 3% 11% 17% 15% 16% 12% 13%
x264 [info]: i4 v,h,dc,ddl,ddr,vr,hd,vl,hu: 19% 6% 4% 8% 14% 13% 14% 10% 12%
x264 [info]: i8c dc,h,v,p: 36% 22% 18% 24%
x264 [info]: Weighted P-Frames: Y:18.4% UV:14.0%
x264 [info]: ref P L0: 52.1% 11.2% 17.3% 5.9% 4.8% 3.2% 2.8% 2.1% 0.5% 0.1%
x264 [info]: ref B L0: 75.2% 12.7% 5.2% 2.8% 2.4% 1.2% 0.5%
x264 [info]: ref B L1: 95.6% 4.4%
x264 [info]: kb/s:2997.98

encoded 159253 frames, 9.46 fps, 2997.98 kb/s
GeneralComplete name : K:\Torrents\Pacific Rim Dilogy.2013-2018.BDRip.x264.1280x\Pacific Rim Uprising.2018.BDRip.x264.1280x.rip by Frost O.S.mp4Format : MPEG-4Format profile : 3GPP Release 6 GeneralCodec ID : 3gg6 (isom/3gg6/mp42)File size : 2.72 GiBDuration : 1 h 50 minOverall bit rate mode : VariableOverall bit rate : 3 519 kb/sEncoded date : UTC 2018-07-28 15:27:31Tagged date : UTC 2018-07-28 15:27:31

VideoID : 1Format : AVCFormat/Info : Advanced Video CodecFormat profile : High@L4.1Format settings : CABAC / 8 Ref FramesFormat settings, CABAC : YesFormat settings, RefFrames : 8 framesCodec ID : avc1Codec ID/Info : Advanced Video CodingDuration : 1 h 50 minBit rate : 3 000 kb/sMaximum bit rate : 10.2 Mb/sWidth : 1 280 pixelsHeight : 532 pixelsDisplay aspect ratio : 2.40:1Frame rate mode : ConstantFrame rate : 23.976 (24000/1001) FPSColor space : YUVChroma subsampling : 4:2:0Bit depth : 8 bitsScan type : ProgressiveBits/(Pixel*Frame) : 0.184Stream size : 2.32 GiB (85%)Writing library : x264 core 152 r2851 ba24899Encoding settings : cabac=1 / ref=8 / deblock=1:-2:-1 / analyse=0x3:0x113 / me=umh / subme=11 / psy=1 / psy_rd=1.00:0.00 / mixed_ref=1 / me_range=32 / chroma_me=1 / trellis=2 / 8x8dct=1 / cqm=0 / deadzone=21,11 / fast_pskip=0 / chroma_qp_offset=-2 / threads=6 / lookahead_threads=1 / sliced_threads=0 / nr=0 / decimate=0 / interlaced=0 / bluray_compat=0 / constrained_intra=0 / bframes=9 / b_pyramid=2 / b_adapt=2 / b_bias=0 / direct=3 / weightb=1 / open_gop=0 / weightp=2 / keyint=250 / keyint_min=23 / scenecut=40 / intra_refresh=0 / rc=2pass / mbtree=0 / bitrate=3000 / ratetol=1.0 / qcomp=0.70 / qpmin=0 / qpmax=69 / qpstep=4 / cplxblur=20.0 / qblur=0.5 / ip_ratio=1.40 / pb_ratio=1.25 / aq=1:0.80Encoded date : UTC 2018-07-27 13:44:58Tagged date : UTC 2018-07-28 15:28:13Color range : LimitedColor primaries : BT.709Transfer characteristics : BT.709Matrix coefficients : BT.709

Audio #1ID : 2Format : AACFormat/Info : Advanced Audio CodecFormat profile : LCCodec ID : mp4a-40-2Duration : 1 h 50 minBit rate mode : VariableBit rate : 128 kb/sMaximum bit rate : 136 kb/sChannel(s) : 2 channelsChannel positions : Front: L RSampling rate : 48.0 kHzFrame rate : 46.875 FPS (1024 SPF)Compression mode : LossyStream size : 101 MiB (4%)Title : Russian / Dub, Blu-Ray EUREncoded date : UTC 2018-07-28 14:37:29Tagged date : UTC 2018-07-28 15:28:13

Audio #2ID : 3Format : AACFormat/Info : Advanced Audio CodecFormat profile : LCCodec ID : mp4a-40-2Duration : 1 h 50 minBit rate mode : VariableBit rate : 128 kb/sMaximum bit rate : 136 kb/sChannel(s) : 2 channelsChannel positions : Front: L RSampling rate : 48.0 kHzFrame rate : 46.875 FPS (1024 SPF)Compression mode : LossyStream size : 101 MiB (4%)Title : Ukrainian / Dub, LeDoyenEncoded date : UTC 2018-07-28 14:40:57Tagged date : UTC 2018-07-28 15:28:13

Audio #3ID : 4Format : AACFormat/Info : Advanced Audio CodecFormat profile : LCCodec ID : mp4a-40-2Duration : 1 h 50 minBit rate mode : VariableBit rate : 128 kb/sMaximum bit rate : 134 kb/sChannel(s) : 2 channelsChannel positions : Front: L RSampling rate : 48.0 kHzFrame rate : 46.875 FPS (1024 SPF)Compression mode : LossyStream size : 101 MiB (4%)Title : Russian / MVO, HDrezka StudioEncoded date : UTC 2018-07-28 14:48:12Tagged date : UTC 2018-07-28 15:28:13

Audio #4ID : 5Format : AACFormat/Info : Advanced Audio CodecFormat profile : LCCodec ID : mp4a-40-2Duration : 1 h 50 minBit rate mode : VariableBit rate : 128 kb/sMaximum bit rate : 136 kb/sChannel(s) : 2 channelsChannel positions : Front: L RSampling rate : 48.0 kHzFrame rate : 46.875 FPS (1024 SPF)Compression mode : LossyStream size : 101 MiB (4%)Title : English / OriginalEncoded date : UTC 2018-07-28 14:33:52Tagged date : UTC 2018-07-28 15:28:13

Text #1ID : 6Format : Timed TextCodec ID : tx3gDuration : 1 h 40 minBit rate mode : VariableBit rate : 2 b/sStream size : 1.22 KiB (0%)Title : Russian / ForcedForced : NoEncoded date : UTC 2018-07-28 15:28:13Tagged date : UTC 2018-07-28 15:28:13

Text #2ID : 7Format : Timed TextCodec ID : tx3gDuration : 1 h 40 minBit rate mode : VariableBit rate : 109 b/sStream size : 80.3 KiB (0%)Title : Russian / iTunesForced : NoEncoded date : UTC 2018-07-28 15:28:13Tagged date : UTC 2018-07-28 15:28:13

Text #3ID : 8Format : Timed TextCodec ID : tx3gDuration : 1 h 40 minBit rate mode : VariableBit rate : 5 b/sStream size : 3.77 KiB (0%)Title : Ukrainian / ForcedForced : NoEncoded date : UTC 2018-07-28 15:28:13Tagged date : UTC 2018-07-28 15:28:13

Text #4ID : 9Format : Timed TextCodec ID : tx3gDuration : 1 h 40 minBit rate mode : VariableBit rate : 69 b/sStream size : 50.7 KiB (0%)Title : English / FullForced : NoEncoded date : UTC 2018-07-28 15:28:13Tagged date : UTC 2018-07-28 15:28:13

Text #5ID : 10Format : Timed TextCodec ID : tx3gDuration : 1 h 40 minBit rate mode : VariableBit rate : 76 b/sStream size : 56.4 KiB (0%)Title : English / SDHForced : NoEncoded date : UTC 2018-07-28 15:28:13Tagged date : UTC 2018-07-28 15:28:13
</div>
</div>
За помощь в создании главного постера спасибо figasibe

Трекер:  [ 28-Июл-2018 19:36 ]

  

Скачать .torrent

Размер .torrent файла 31 KB


Размер: 6.06 GB
Хэш (hash) релиза: d1c7d644a141686c8bfda0504d3da365a26d1b6d

Еще никто не оставлял запись к записи скачать торрент [VIDEO] Тихоокеанский рубеж: Дилогия Pacific Rim: Dilogy . Будь первым!

!Обратная связь