Скачать через торрент Плащ и Кинжал Cloak & Dagger Фильм бесплатно в хорошем качестве torrent

Скачивайте на UnionPeer.org фильмы через торрент без регистрации. Новинки кино в хорошем качестве через торрент. На UnionPeer.org можно скачать через торрент фильмы 2014 и 2015 годов. Самые новые фильмы.

Скачать торрент Плащ и Кинжал Cloak & Dagger бесплатно через .torrent фильм мультфильм сериал

Статистика раздачи
Размер:  8.6 GB   |    Зарегистрирован:  3 месяца 16 дней   |    .torrent скачан:  64 раза   |   
Раздают:  1  
   
загрузка...
 
Автор Сообщение

Galfimbul

avatar Galfimbul


Плащ и Кинжал / Cloak & Dagger
Производство: США, Marvel Television, ABC Signature Studios, Wandering Rocks
Год выпуска: 2018
Жанр: фантастика, боевик, драма, приключения
Продолжительность: ~ 00:49:00 серия
Премьера (мир): 11 марта 2018
Премьера (РФ): 8 июня 2018
Перевод: Любительский (многоголосый закадровый) | Baibako
Режиссёр: Алекс Гарсиа Лопес, Пол А. Эдвардс, Питер Хор
В ролях: Дерик Августин, Ноэль Рени Берси, Маркус Клэй, Митч Крафт, Майкл Винсент Донован, Дж.Д. Эвермор, Брайан Майкл Холл, Шон Брэдли Хофер, Оливия Холт, Обри Джозеф и др.
Описание:
Два подростка обнаруживают у себя новые суперспособности — Тэнди может излучать световые кинжалы, а Тайрон способен облачать людей во тьму. Они быстро понимают, что вместе им лучше, чем порознь, но их чувства друг к другу делают сложный мир еще более запутанным.
<div class="post-box-default">
<div class="post-box" style="border-color: #d2d2d2; background: #000000;">Ссылка на предыдущие и альтернативные раздачи</div>
</div>

Качество видео: WEBRip 720p
Формат: MKV
Видео: AVC, 1280 x 720 (1.778), 23.976 fps, ~2096 kbps
Аудио Rus: AC-3, 48 kHz, 6 ch, 384 kbps |Baibako|
Аудио Eng: AC-3, 48 kHz, 6 ch, 384 kbps |Original|
Субтитры: английские
Реклама: отсутствует
ОбщееУникальный идентификатор : 94045588910809641911454008507040798028 (0x46C085866751BF12B2F48E377FA8154C)Полное имя : E:\_Сериалы\_Сериалы\Плащ и Кинжал\Cloak.and.Dagger.s01.720p.WEBRip.Rus.Eng.BaibaKo\Cloak.and.Dagger.S01E01.720p.WEBRip.Rus.Eng.BaibaKo.mkvФормат : MatroskaВерсия формата : Version 4 / Version 2Размер файла : 1010 МбайтПродолжительность : 49 м. 15 с.Режим общего битрейта : ПеременныйОбщий поток : 2866 Кбит/секДата кодирования : UTC 2018-07-28 09:35:33Программа кодирования : mkvmerge v25.0.0 ('Prog Noir') 64-bitБиблиотека кодирования : libebml v1.3.6 + libmatroska v1.4.9

ВидеоИдентификатор : 1Формат : AVCФормат/Информация : Advanced Video CodecПрофиль формата : High@L3.1Настройки формата : CABAC / 5 Ref FramesПараметр CABAC формата : ДаПараметр RefFrames формата : 5 кадровИдентификатор кодека : V_MPEG4/ISO/AVCПродолжительность : 49 м. 15 с.Вид битрейта : ПеременныйБитрейт : 2096 Кбит/секМаксимальный битрейт : 4500 Кбит/секШирина : 1280 пикселейВысота : 720 пикселейСоотношение сторон : 16:9Режим частоты кадров : ПостоянныйЧастота кадров : 23,976 (24000/1001) кадра/секЦветовое пространство : YUVСубдискретизация насыщенности : 4:2:0Битовая глубина : 8 битТип развёртки : ПрогрессивнаяБит/(Пиксели*Кадры) : 0.095Размер потока : 738 Мбайт (73%)Default : ДаForced : НетЦветовой диапазон : LimitedОсновные цвета : BT.709Характеристики трансфера : BT.709Коэффициенты матрицы : BT.709

Аудио #1Идентификатор : 2Формат : AC-3Формат/Информация : Audio Coding 3Идентификатор кодека : A_AC3Продолжительность : 49 м. 15 с.Вид битрейта : ПостоянныйБитрейт : 384 Кбит/секКаналы : 6 каналовРасположение каналов : Front: L C R, Side: L R, LFEЧастота : 48,0 КГцЧастота кадров : 31,250 кадров/сек (1536 SPF)Битовая глубина : 16 битМетод сжатия : С потерямиРазмер потока : 135 Мбайт (13%)Язык : RussianServiceKind/String : Complete MainDefault : ДаForced : Нет

Аудио #2Идентификатор : 3Формат : AC-3Формат/Информация : Audio Coding 3Идентификатор кодека : A_AC3Продолжительность : 49 м. 15 с.Вид битрейта : ПостоянныйБитрейт : 384 Кбит/секКаналы : 6 каналовРасположение каналов : Front: L C R, Side: L R, LFEЧастота : 48,0 КГцЧастота кадров : 31,250 кадров/сек (1536 SPF)Битовая глубина : 16 битМетод сжатия : С потерямиРазмер потока : 135 Мбайт (13%)Язык : EnglishServiceKind/String : Complete MainDefault : НетForced : Нет

ТекстИдентификатор : 4Формат : UTF-8Идентификатор кодека : S_TEXT/UTF8Идентификатор кодека/Информация : UTF-8 Plain TextПродолжительность : 48 м. 31 с.Битрейт : 55 бит/секElementCount : 763Размер потока : 19,6 Кбайт (0%)Язык : EnglishDefault : ДаForced : Нет


Раздача ведётся путём добавления новых серий; при каждом добавлении создаётся новый торрент.
Чтобы начать докачку новой серии, пользователям необходимо сделать следующее:
1. остановить скачивание,
2. удалить старый торрент у себя из клиента (старые серии удалять не надо),
3. скачать новый торрент и запустить его у себя в клиенте вместо старого, при этом указать клиенту путь в старую папку, куда и должно происходить скачивание новых серий.

Ваш клиент при этом должен произвести хеширование (проверку) старой папки (если не производит сам - помогите ему сделать это), и будет докачивать только те серии которых у вас ещё нет. Старые серии при этом не удаляются, а продолжают раздаваться!

Eсли вы уже удалили старые серии, то предотвратить повторную закачку старых серий можно, отжав галочку в соответствующих местах при запуске нового торрента. По возможности, желательно не удалять старые серии как можно дольше, чтобы релизёр не столько продолжал раздавать старые серии, а смог сконцентрироваться на новых.

Совет для тех, кто не хочет ждать перехеширования:
Создайте ещё одну папку рядом с папкой сериала (рядом, а не в ней!!!). Каждую новую серию после удачной загрузки копируйте в новую папку так чтобы ваша основная папка всегда была пуста. Когда ваш новый торрент предложит вам закачать все файлы, выберете только последнюю. Для сидирования же укажите адрес новой папки.

Как закачать отдельный файл из торрента или докачать ранее пропущенные файлы торрента!

1. Открыть торрент
2. Снять галки с тех файлов торрента, которые мы не хотим закачивать. Оставляем только на нужных нам файлах (файле).
3. Нажать О.К.

В клиенте utorrent

Инструкция

1) Открыть торрент


2) Снять галки с тех файлов торрента, которые мы не хотим закачивать:

* либо вручную, снимая с каждого файла галку( скрин №1)
* либо, нажав кнопку "Снять метки (Select None)", сняв сразу со всех файлов(скрин №2)
№1
№2
Оставляем только на нужных нам файлах (файле).
3)Нажать О.К

Приятного просмотра!!!

Трекер:  [ 28-Июл-2018 21:18 ]

  

Скачать .torrent

Размер .torrent файла 44 KB


Размер: 8.6 GB
Хэш (hash) релиза: 93995f08751fefcad75fc7bc0bb3b6515ffe8955
Подписка на обновления:

Еще никто не оставлял запись к записи скачать торрент Плащ и Кинжал Cloak & Dagger . Будь первым!

!Обратная связь