Скачать через торрент Борец за справедливость Кэшман Chokin Senshi Cashman бесплатно Аниме Все серии на русском torrent

Статистика раздачи
Размер:  198 MB   |    Зарегистрирован:  4 месяца 14 дней   |    .torrent скачан:  60 раз   |   
Раздают:  1  
   
загрузка...
 
Автор Сообщение

Galfimbul

avatar Galfimbul


Борец за справедливость Кэшман / Chokin Senshi Cashman / Savings Warrior Cashman / 貯金戦士キャッシュマン

Страна: Япония
Год выпуска: 1997
Жанр: приключения
Тип: OVA
Продолжительность: 15 мин.
Режиссер: Кадода Хидэхико
Студия: Toei Animation

Описание: Дзиора - полицейский с планеты Биретодзин. Однажды, когда он преследует опасных преступников в космосе, его корабль терпит крушение на Земле. Он ремонтирует свой корабль, но без нужного топлива (золота) обратно ему не вернуться. И теперь он вынужден остаться на Земле и скрываться под видом Чапата, полицейского из Слоуп Тауна, которого он по случайности убил, приземлившись на планете. Дабы накопить нужную сумму в 17 миллионов йен и купить достаточно золота для топлива, Дзиора платно борется c преступностью под видом супергероя - Кэшмана.

Качество: VHSRip
Тип релиза: Без хардсаба
Формат видео: MKV
Релиз/Автор рипа: shiteater
Видео: AVC, 640x480, 1 662 kb/s, 29.970 fps, 8 bit
Аудио: jpn(int), AAC, 160 kb/s, 48.0 kHz, 2 ch
Субтитры 1: eng(int), ASS
Субтитры 2: rus(ext), ASS, перевод: hokuto_san
GeneralUnique ID : 204845365827384308889669455468931344408 (0x9A1BC84B7880CB9C993F0B16155C6818)Complete name : F:\1\MR\Savings Warrior Cashman\(shiteater) Savings Warrior Cashman OVA (1997) [7CCFD0F0].mkvFormat : MatroskaFormat version : Version 4 / Version 2File size : 198 MiBDuration : 15 min 8 sOverall bit rate : 1 828 kb/sEncoded date : UTC 2017-07-12 14:15:22Writing application : mkvmerge v12.0.0 ('Trust / Lust') 64bitWriting library : libebml v1.3.4 + libmatroska v1.4.5Attachments : ARLRDBD_0.TTF / digistrip_0.ttf / trebucbd_0.ttf / trebucbi_0.ttf / VINERITC_0.TTF

VideoID : 1Format : AVCFormat/Info : Advanced Video CodecFormat profile : Main@L4Format settings : CABAC / 4 Ref FramesFormat settings, CABAC : YesFormat settings, RefFrames : 4 framesCodec ID : V_MPEG4/ISO/AVCDuration : 15 min 8 sBit rate : 1 662 kb/sWidth : 640 pixelsHeight : 480 pixelsDisplay aspect ratio : 4:3Frame rate mode : VariableFrame rate : 29.970 (29970/1000) FPSColor space : YUVChroma subsampling : 4:2:0Bit depth : 8 bitsScan type : ProgressiveBits/(Pixel*Frame) : 0.180Stream size : 180 MiB (91%)Writing library : x264 core 142 r2479 dd79a61Encoding settings : cabac=1 / ref=3 / deblock=1:0:0 / analyse=0x1:0x111 / me=hex / subme=7 / psy=1 / psy_rd=1.00:0.00 / mixed_ref=1 / me_range=16 / chroma_me=1 / trellis=1 / 8x8dct=0 / cqm=0 / deadzone=21,11 / fast_pskip=1 / chroma_qp_offset=-2 / threads=1 / lookahead_threads=1 / sliced_threads=0 / nr=0 / decimate=1 / interlaced=0 / bluray_compat=0 / constrained_intra=0 / bframes=3 / b_pyramid=2 / b_adapt=1 / b_bias=0 / direct=1 / weightb=1 / open_gop=0 / weightp=2 / keyint=300 / keyint_min=30 / scenecut=40 / intra_refresh=0 / rc_lookahead=40 / rc=crf / mbtree=1 / crf=18.0 / qcomp=0.60 / qpmin=0 / qpmax=69 / qpstep=4 / vbv_maxrate=20000 / vbv_bufsize=25000 / crf_max=0.0 / nal_hrd=none / filler=0 / ip_ratio=1.40 / aq=1:1.00Language : JapaneseDefault : YesForced : NoColor range : LimitedColor primaries : BT.601 NTSCTransfer characteristics : BT.709Matrix coefficients : BT.601

AudioID : 2Format : AACFormat/Info : Advanced Audio CodecFormat profile : LCCodec ID : A_AAC-2Duration : 15 min 8 sBit rate : 160 kb/sChannel(s) : 2 channelsChannel positions : Front: L RSampling rate : 48.0 kHzFrame rate : 46.875 FPS (1024 SPF)Compression mode : LossyStream size : 17.3 MiB (9%)Language : JapaneseDefault : YesForced : No

TextID : 3Format : ASSCodec ID : S_TEXT/ASSCodec ID/Info : Advanced Sub Station AlphaDuration : 14 min 30 sBit rate : 75 b/sCount of elements : 157Compression mode : LosslessStream size : 7.97 KiB (0%)Language : EnglishDefault : YesForced : No

Menu00:00:00.000 : en:Opening00:01:03.000 : en:Main00:14:01.500 : en:Ending


Трекер:  [ 28-Июл-2018 23:01 ]

  

Скачать .torrent

Размер .torrent файла 16 KB


Размер: 198 MB
Хэш (hash) релиза: 6fc52c3a84f93b5e38be71d3563dcc8068a1f92d
Подписка на обновления:

Еще никто не оставлял запись к записи скачать торрент Борец за справедливость Кэшман Chokin Senshi Cashman . Будь первым!

!Обратная связь