Скачать через торрент Юна из гостиницы Юраги Yuragi-sou no Yuuna-san бесплатно Аниме Все серии на русском torrent

Статистика раздачи
Размер:  1.07 GB   |    Зарегистрирован:  2 месяца 19 дней   |    .torrent скачан:  35 раз   |   
Раздают:  1  
   
загрузка...
 
Автор Сообщение

Galfimbul

avatar Galfimbul



Юна из гостиницы Юраги / Yuragi-sou no Yuuna-san
Страна: Япония
Год выпуска: 2018
Жанр: комедия, романтика, этти, гарем, сверхъестественное, сёнэн
Тип: TV
Продолжительность: 12 эп., ~25 мин. эпизод
Режиссер: Нагасава Цуёси
Студия: Xebec
Описание:Фуюзора Когараши с самого детства видит призраков и прочих существ, его жизнь с ранних пор связана со сверхъестественным и паранормальным. Это создало ему в жизни немало проблем, из-за чего пришлось приложить усилия и научиться отбиваться от духов! Мало ему было несчастий: помимо преследования призраками он живёт худо-бедно, без определённого места жительства, и все мысли полны мечтами о привычной любому и столь полной счастья жизни в старшей школе. И вот, пока искал пристанище, он наткнулся на баснословно дешёвое здание – поместье Юраги, некогда бывшее популярным рёканом с горячими источниками. А сбило цену наличие в этом поместье привидения старшеклассника, тело которого нашли в этом самом здании.

Для Когараши всё это пустяки, так ещё и живут в этом поместье поголовно сексуальные красавицы. Только на горячих источниках ему становится ясно, что не так: обитателем поместья Юраги так же оказалась шестнадцатилетняя Юна, и живёт как раз в комнате у старшеклассника. Когараши не хочет её обидеть в результате чего соглашается помочь ей разобраться с неоконченными делами. Именно так ей удастся наконец отойти в мир иной, прежде чем зло одержит верх, а она падёт в Ад. Стоит остальным жителям понять, что Юна парня не пугает, они раскрывают и свои крайне необычные секреты… в поместье Юраги жизнь у Когараши явно будет не обычная!
© Risens Team
World-Art | AniDB
Качество: WEBRip
Тип релиза: Без хардсаба
Формат видео: MKV
Наличие линковки: Нет
Релиз: [HorribleSubs]
Видео: 1280x720, x264, 1 977 kb/s, 23.976 fps, 8 бит
Аудио: AAC, 128 kb/s, 2 ch, 48.0 kHz; язык японский
Субтитры: внешние, язык субтитров русский; Перевод: KuroKaze [Sovetromantica]
Format : MatroskaFormat version : Version 4 / Version 2File size : 357 MiBDuration : 23 min 40 sOverall bit rate : 2 107 kb/sEncoded date : UTC 2018-07-28 20:58:55Writing application : mkvmerge v25.0.0 ('Prog Noir') 64-bitWriting library : libebml v1.3.6 + libmatroska v1.4.9

VideoID : 1Format : AVCFormat/Info : Advanced Video CodecFormat profile : High@L4Format settings : CABAC / 6 Ref FramesFormat settings, CABAC : YesFormat settings, ReFrames : 6 framesCodec ID : V_MPEG4/ISO/AVCDuration : 23 min 40 sBit rate : 1 977 kb/sWidth : 1 280 pixelsHeight : 720 pixelsDisplay aspect ratio : 16:9Frame rate mode : ConstantFrame rate : 23.976 (24000/1001) FPSColor space : YUVChroma subsampling : 4:2:0Bit depth : 8 bitsScan type : ProgressiveBits/(Pixel*Frame) : 0.089Stream size : 335 MiB (94%)Writing library : x264 core 142Encoding settings : cabac=1 / ref=6 / deblock=1:1:1 / analyse=0x3:0x113 / me=umh / subme=8 / psy=1 / psy_rd=0.40:0.00 / mixed_ref=1 / me_range=16 / chroma_me=1 / trellis=1 / 8x8dct=1 / cqm=0 / deadzone=21,11 / fast_pskip=1 / chroma_qp_offset=-2 / threads=10 / lookahead_threads=1 / sliced_threads=0 / nr=0 / decimate=1 / interlaced=0 / bluray_compat=0 / constrained_intra=0 / bframes=3 / b_pyramid=2 / b_adapt=2 / b_bias=0 / direct=3 / weightb=1 / open_gop=0 / weightp=2 / keyint=48 / keyint_min=24 / scenecut=40 / intra_refresh=0 / rc_lookahead=48 / rc=crf / mbtree=1 / crf=15.0 / qcomp=0.60 / qpmin=0 / qpmax=69 / qpstep=4 / vbv_maxrate=4000 / vbv_bufsize=6000 / crf_max=0.0 / nal_hrd=none / filler=0 / ip_ratio=1.40 / aq=1:0.60Default : YesForced : No

AudioID : 2Format : AACFormat/Info : Advanced Audio CodecFormat profile : LCCodec ID : A_AAC-2Duration : 23 min 40 sBit rate : 128 kb/sChannel(s) : 2 channelsChannel positions : Front: L RSampling rate : 48.0 kHzFrame rate : 46.875 FPS (1024 SPF)Compression mode : LossyStream size : 21.7 MiB (6%)Language : JapaneseDefault : YesForced : No
1. Юна из гостиницы Юраги
2. Юна и банный пинг-понг
3. Юна идёт в школу


Трекер:  [ 29-Июл-2018 08:01 ]

  

Скачать .torrent

Размер .torrent файла 12 KB


Размер: 1.07 GB
Хэш (hash) релиза: 74e9521f8c87f807f79b93c8c863ff04e6dfe4c1
Подписка на обновления:

Еще никто не оставлял запись к записи скачать торрент Юна из гостиницы Юраги Yuragi-sou no Yuuna-san . Будь первым!

!Обратная связь