Скачать через торрент Железный Человек Iron Man: The Animated Series Фильм бесплатно в хорошем качестве torrent

Скачивайте на UnionPeer.org фильмы через торрент без регистрации. Новинки кино в хорошем качестве через торрент. На UnionPeer.org можно скачать через торрент фильмы 2014 и 2015 годов. Самые новые фильмы.

Скачать торрент Железный Человек Iron Man: The Animated Series бесплатно через .torrent фильм мультфильм сериал

Статистика раздачи
Размер:  21.01 GB   |    Зарегистрирован:  4 месяца 14 дней   |    .torrent скачан:  41 раз   |   
Раздают:  1  
   
загрузка...
 
Автор Сообщение

Galfimbul

avatar Galfimbul



Железный Человек / Iron Man: The Animated Series
The Complete Series

Год выпуска: 12 сентября 1998 – 22 апреля 2000
Страна: США
Жанр: Фантастика, приключения
Продолжительность: 21 мин.
Режиссёр: Джордж Джонсон / George Johnson
Роли озвучивали:Роберт Хэйс, Джеймс Эвери, Эд Гилберт, Роберт Ито, Джим КаммингсОписание:
Железный человек — герой, борющийся со злом с помощью своих доспехов, которые заодно и поддерживают его повседневную жизнь, жизнь Тони Старка, миллиардера, владельца солидной компании по производству секретного оружия, производимого по заказу государства и так называемой организации «Щит», с которой он также сотрудничает в образе героя в стальных доспехах - Железного человека.

Но на пути у него вечно встает его заклятый враг и ярый противник — некто Мандарин, древний монгольский хан и завоеватель. Он также обладает силой, правда магической, что верно является весьма и весьма опасным для нашего героя признаком.
Аудиодорожка 01: AC3 | 48khz | 2ch | 192kb/s Профессиональный (полное дублирование) студия INTRA по заказу FOX Kids
Аудиодорожка 02: AC3 | 48khz | 2ch | 192kb/s Оригинал (english)
Аудиодорожка 02: AC3 | 48khz | 2ch | 192kb/s Французский (отдельным файлом)
Аудиодорожка 02: AC3 | 48khz | 2ch | 192kb/s Испанский (отдельным файлом)
Субтитры : английские, французские, испанские
Разбивка на главы : Есть

Качество: DVDRemux
Формат: MKV
Видео кодек: MPEG2
Аудио кодек: AC3
Видео: MPEG-2 Video | NTSC | 4:3 | 720x480 | 23.976 fps | 4334-9800 Kbps/
Season 1
Episode 1: And the Sea Shall Give Up its Dead
Episode 2: Rejoice! I Am Ultimo, Thy Deliverer
Episode 3: Data In, Chaos Out
Episode 4: Silence My Companion, Death My Destination
Episode 5: The Grim Reaper Wears A Teflon Coat
Episode 6: Enemy Without, Enemy Within
Episode 7: The Origin of the Mandarin
Episode 8: The Defection of Hawkeye
Episode 9: Iron Man to the Second Power, Part 1
Episode 10: Iron Man to the Second Power, Part 2
Episode 11: The Origin of Iron Man, Part 1
Episode 12: The Origin of Iron Man, Part 2
Episode 13: The Wedding of Iron Man
Season 2
Episode 14: The Beast Within
Episode 15: Fire and Rain
Episode 16: Cell of Iron
Episode 17: Not Far From the Tree
Episode 18: Beauty Knows No Pain
Episode 19: Iron Man, On the Inside
Episode 20: Distant Boundaries
Episode 21: The Armor Wars, Part 1
Episode 22: The Armor Wars, Part 2
Episode 23: Empowered
Episode 24: Hulk Buster
Episode 25: Hands of the Mandarin, Part 1
Episode 26: Hands of the Mandarin, Part 2
<div class="sp-wrap">
<div class="sp-head folded">Media info</div>
<div class="sp-body">

ОбщееУникальный идентификатор : 199978818410094598500727754909330156049 (0x967284FB74CCBCE9480D8D461D3BAA11)Полное имя : D:\Ремуксы\[AORE] Iron Man Animated Series\Season 1\1.01. And The Sea Shall Give Up Its Dead.mkvФормат : MatroskaВерсия формата : Version 4 / Version 2Размер файла : 741 МбайтПродолжительность : 21 м. 53 с.Режим общего битрейта : ПеременныйОбщий поток : 4729 Кбит/секДата кодирования : UTC 2018-07-28 18:17:55Программа кодирования : mkvmerge v25.0.0 ('Prog Noir') 64-bitБиблиотека кодирования : libebml v1.3.6 + libmatroska v1.4.9

ВидеоИдентификатор : 1Формат : MPEG VideoВерсия формата : Version 2Профиль формата : Main@MainНастройки формата : CustomMatrix / BVOPПараметр BVOP формата : ДаПараметр матрицы формата : ВыборочнаяПараметр GOP формата : VariableСтруктура изображения : FrameИдентификатор кодека : V_MPEG2Идентификатор кодека/Информация : MPEG 1 or 2 VideoПродолжительность : 21 м. 53 с.Вид битрейта : ПеременныйБитрейт : 4334 Кбит/секМаксимальный битрейт : 9800 Кбит/секШирина : 720 пикселейВысота : 480 пикселейСоотношение сторон : 4:3Режим частоты кадров : ПостоянныйЧастота кадров : 29,970 (30000/1001) кадров/секСтандарт вещания : NTSCЦветовое пространство : YUVСубдискретизация насыщенности : 4:2:0Битовая глубина : 8 битТип развёртки : ЧересстрочнаяПорядок развёртки : Верхнее поле первоеМетод сжатия : С потерямиБит/(Пиксели*Кадры) : 0.418Временной код первого кадра : 00:59:59;00Оригинал временного кода : Group of pictures headerGOP, открыто/закрыто : ОткрытоGOP, открыто/закрыто на первом кадре : ЗакрытоРазмер потока : 679 Мбайт (92%)Язык : EnglishDefault : НетForced : Нет

Аудио #1Идентификатор : 2Формат : AC-3Формат/Информация : Audio Coding 3Идентификатор кодека : A_AC3Продолжительность : 21 м. 53 с.Вид битрейта : ПостоянныйБитрейт : 192 Кбит/секКаналы : 2 каналаРасположение каналов : Front: L RЧастота : 48,0 КГцЧастота кадров : 31,250 кадров/сек (1536 SPF)Битовая глубина : 16 битМетод сжатия : С потерямиРазмер потока : 30,1 Мбайт (4%)Язык : RussianServiceKind/String : Complete MainDefault : ДаForced : Нет

Аудио #2Идентификатор : 3Формат : AC-3Формат/Информация : Audio Coding 3Идентификатор кодека : A_AC3Продолжительность : 21 м. 53 с.Вид битрейта : ПостоянныйБитрейт : 192 Кбит/секКаналы : 2 каналаРасположение каналов : Front: L RЧастота : 48,0 КГцЧастота кадров : 31,250 кадров/сек (1536 SPF)Битовая глубина : 16 битМетод сжатия : С потерямиРазмер потока : 30,1 Мбайт (4%)Язык : EnglishServiceKind/String : Complete MainDefault : НетForced : Нет

Текст #1Идентификатор : 4Формат : VobSubРежим смешивания : zlibИдентификатор кодека : S_VOBSUBИдентификатор кодека/Информация : Picture based subtitle format used on DVDsПродолжительность : 19 м. 34 с.Битрейт : 6650 бит/секElementCount : 238Размер потока : 954 Кбайт (0%)Язык : EnglishDefault : ДаForced : Нет

Текст #2Идентификатор : 5Формат : VobSubРежим смешивания : zlibИдентификатор кодека : S_VOBSUBИдентификатор кодека/Информация : Picture based subtitle format used on DVDsПродолжительность : 19 м. 34 с.Битрейт : 6369 бит/секElementCount : 221Размер потока : 913 Кбайт (0%)Язык : FrenchDefault : НетForced : Нет

Текст #3Идентификатор : 6Формат : VobSubРежим смешивания : zlibИдентификатор кодека : S_VOBSUBИдентификатор кодека/Информация : Picture based subtitle format used on DVDsПродолжительность : 19 м. 34 с.Битрейт : 5969 бит/секElementCount : 221Размер потока : 856 Кбайт (0%)Язык : SpanishDefault : НетForced : Нет

Меню00:00:00.000 : en:Chapter 0100:01:01.628 : en:Chapter 0200:08:47.827 : en:Chapter 0300:14:21.994 : en:Chapter 0400:20:46.245 : en:Chapter 05
</div>
</div>
Серия 2.01
00:02:25-00:02-27
00:03-27-00:03-29

Серия 2.02
00:01-20-00:01:23

Серия 2.04
00:20:15-00:20:20 (нужна озвучка)

Серия 2.07
00:09:02-00:09:07
00:17:57-00:18:09 (нужна озвучка)
Информация о проекте:

Были использованы 3 DVD второго региона. На дисках ничего, кроме сериала были пара трейлеров. Видео и аудио никаким обработкам не подвергалось. Звук синхронизировался с помощью Sony Vegas без сохранения тона.
Синхронизация первого сезона - SerGoLeOne
Синхронизация второго сезона - AORE
Владимир Кудров и Рина Гришина - озвучка недостающего фрагмента в 4 серииРусские DVD (только русская дорожка)1 сезон DVD-Rip (только русская дорожка)
2 сезон Sat-Rip (только русская дорожка)
DVD-Rip с зарубежного издания (русская и английская дороги)
1 сезон DVD-Rip (только русская дорожка)
1 и 2 сезоны DVD-Rip (только русская дорожка)
Мои ремуксы


Трекер:  [ 29-Июл-2018 13:54 ]

  

Скачать .torrent

Размер .torrent файла 111 KB


Размер: 21.01 GB
Хэш (hash) релиза: 6d8c3fe098be651804ff86cbfe805b038dfd0716
Подписка на обновления:

Торренты, похожие на Железный Человек Iron Man: The Animated Series скачать торрент

Форум Название Автор Размер S L Добавлен
Мультсериалы ·· Железный Человек / Iron Man: The Animated Series / Сезоны: 1-2 / Серии: 1-26 из 26 (Джордж Джонсон / George Johnson) [1994-1996, фантастика, боевик, приключения, DVDRip-AVC] Dub Galfimbul 1118349800610.42 GB 0 0 1523867053

11:24

16-Апр-18

Еще никто не оставлял запись к записи скачать торрент Железный Человек Iron Man: The Animated Series . Будь первым!

!Обратная связь