Скачать через торрент музыку Олег Каравайчук Музыка к кинофильму «Броненосец Потемкин» - 2017, FLAC бесплатно без регистрации torrent

Статистика раздачи
Размер:  597 MB   |    Зарегистрирован:  7 месяцев   |    .torrent скачан:  47 раз   |   
Раздают:  1  
   
загрузка...
 
Автор Сообщение

Galfimbul

avatar Galfimbul


Олег Каравайчук / Музыка к кинофильму «Броненосец Потемкин»

Жанр: Classical/Minimalism
Страна-производитель диска: Russia
Год издания диска: 2017
Издатель (лейбл): Бомба-Питер
Номер по каталогу: CDMAN 620-17 2CD
Дата записи: 2006
Аудиокодек: FLAC
Тип рипа: image+.cue
Битрейт аудио: lossless
Продолжительность: 1:10:54 / 1:13:44
Источник: собственный рип
Наличие сканов в содержимом раздачи: да
Треклист:
CD 1. Оригинальный саундтрек
1. Люди и черви
2. Мясо хорошее. Никаких разговоров
3. Кипящий борщ
4. Драма на тендере. Всех наверх!
5. Дрогнули винтовки
6. Последняя пристань Вакулинчука
7. Мёртвый взывает
8. Долой самодержавие!
9. Одесская лестница
10. Слышите! Не стреляйте!
11. Встреча с эскадрой
12. Братья! Ура!

CD 2. Альтернативный саундтрек
1. First Sound of Battleship Potemkin
2. Second Sound of Battleship Potemkin
3. Third Sound of Battleship Potemkin
4. Fourth Sound of Battleship Potemkin
5. Fifth Sound of Battleship Potemkin
6. Sixth Sound of Battleship Potemkin
7. Seventh Sound of Battleship Potemkin
8. Eighth Sound of Battleship Potemkin
Исполнители:
Олег Каравайчук
<div class="sp-wrap">
<div class="sp-head folded">CD1</div>
<div class="sp-body">Exact Audio Copy V1.3 from 2. September 2016

Отчёт EAC об извлечении, выполненном 27. июля 2018, 21:15

Oleg Karavaichuk / Battleship Potemkin, Original Soundtrack

Дисковод: ASUS DRW-24D5MT Adapter: 1 ID: 0

Режим чтения : Достоверность
Использование точного потока : Да
Отключение кэша аудио : Да
Использование указателей C2 : Нет

Коррекция смещения при чтении : 6
Способность читать области Lead-in и Lead-out : Нет
Заполнение пропущенных сэмплов тишиной : Да
Удаление блоков с тишиной в начале и конце : Нет
При вычислениях CRC использовались нулевые сэмплы : Да
Интерфейс : Встроенный Win32-интерфейс для Win NT/2000

Выходной формат : Пользовательский кодировщик
Выбранный битрейт : 1024 kBit/s
Качество : Высокий
Добавление ID3-тега : Да
Утилита сжатия : C:\Program Files (x86)\FLAC Frontend\tools\flac.exe
Дополнительные параметры : -V -8 -T "Date=%year%" -T "Genre=%genre%" %source%

TOC извлечённого CD

Трек | Старт | Длительность | Начальный сектор | Конечный сектор
---------------------------------------------------------------------
1 | 0:00.00 | 6:15.01 | 0 | 28125
2 | 6:15.01 | 3:00.68 | 28126 | 41693
3 | 9:15.69 | 7:30.61 | 41694 | 75504
4 | 16:46.55 | 8:25.19 | 75505 | 113398
5 | 25:11.74 | 6:13.59 | 113399 | 141432
6 | 31:25.58 | 1:44.28 | 141433 | 149260
7 | 33:10.11 | 3:04.51 | 149261 | 163111
8 | 36:14.62 | 7:52.11 | 163112 | 198522
9 | 44:06.73 | 8:47.16 | 198523 | 238063
10 | 52:54.14 | 2:29.55 | 238064 | 249293
11 | 55:23.69 | 7:22.36 | 249294 | 282479
12 | 62:46.30 | 8:08.05 | 282480 | 319084

Характеристики диапазона извлечения и сообщения об ошибках

Выбранный диапазон

Имя файла D:\_CD_RIP\Oleg Karavaichuk - Battleship Potemkin, Original Soundtrack.wav

Пиковый уровень 98.1 %
Скорость извлечения 8.2 X
Качество диапазона 100.0 %
CRC теста D790D8E0
CRC копии D790D8E0
Копирование... OK

Ошибок не произошло

Конец отчёта

---- CUETools DB Plugin V2.1.6

[CTDB TOCID: MVvfVlZfGD6dY.p33StcUnDj10Q-] disk not present in database
Submit result: MVvfVlZfGD6dY.p33StcUnDj10Q- has been uploaded

==== Контрольная сумма отчёта EE943D87FB2753BE0767B97D12BE18AD15CE1697D4A7B117B39561568904DA10 ====
Exact Audio Copy V1.3 from 2. September 2016

Отчёт EAC об извлечении, выполненном 27. июля 2018, 21:48

Oleg Karavaichuk / Battleship Potemkin_ Alternative soundtrack

Дисковод: ASUS DRW-24D5MT Adapter: 1 ID: 0

Режим чтения : Достоверность
Использование точного потока : Да
Отключение кэша аудио : Да
Использование указателей C2 : Нет

Коррекция смещения при чтении : 6
Способность читать области Lead-in и Lead-out : Нет
Заполнение пропущенных сэмплов тишиной : Да
Удаление блоков с тишиной в начале и конце : Нет
При вычислениях CRC использовались нулевые сэмплы : Да
Интерфейс : Встроенный Win32-интерфейс для Win NT/2000

Выходной формат : Пользовательский кодировщик
Выбранный битрейт : 1024 kBit/s
Качество : Высокий
Добавление ID3-тега : Да
Утилита сжатия : C:\Program Files (x86)\FLAC Frontend\tools\flac.exe
Дополнительные параметры : -V -8 -T "Date=%year%" -T "Genre=%genre%" %source%

TOC извлечённого CD

Трек | Старт | Длительность | Начальный сектор | Конечный сектор
---------------------------------------------------------------------
1 | 0:00.00 | 7:55.43 | 0 | 35667
2 | 7:55.43 | 16:39.10 | 35668 | 110602
3 | 24:34.53 | 8:24.60 | 110603 | 148462
4 | 32:59.38 | 20:03.28 | 148463 | 238715
5 | 53:02.66 | 7:58.71 | 238716 | 274636
6 | 61:01.62 | 6:12.04 | 274637 | 302540
7 | 67:13.66 | 5:52.71 | 302541 | 329011
8 | 73:06.62 | 0:36.55 | 329012 | 331766

Характеристики диапазона извлечения и сообщения об ошибках

Выбранный диапазон

Имя файла D:\_CD_RIP\Oleg Karavaichuk - Battleship Potemkin_ Alternative soundtrack.wav

Пиковый уровень 98.5 %
Скорость извлечения 8.2 X
Качество диапазона 99.9 %
CRC теста 90508DAF
CRC копии 90508DAF
Копирование... OK

Ошибок не произошло

Конец отчёта

---- CUETools DB Plugin V2.1.6

[CTDB TOCID: 9o7h9Dj5e7PKXJr2Oxr86YKM0z8-] disk not present in database
Submit result: 9o7h9Dj5e7PKXJr2Oxr86YKM0z8- has been uploaded

==== Контрольная сумма отчёта 9ABE0B2B3FAA7F63BB879B1E6CAAE6117D1C3E1A7435FA52468DBB2B12675AC8 ====
</div>
</div>
<div class="sp-wrap">
<div class="sp-head folded">CD1</div>
<div class="sp-body">AUDIOCHECKER v2.0 beta (build 457) - by Dester - opdester@freemail.hu
~~~~~~~~~~~~~~~~~~~~~~~~~~~~~~~~~~
-=== НЕ РЕДАКТИРУЙТЕ ЭТОТ ФАЙЛ! ===-

Путь: ...\CD1

1 -=- Oleg Karavaichuk - Battleship Potemkin, Original Soundtrack.flac -=- CDDA (100%)

219517012
AUDIOCHECKER v2.0 beta (build 457) - by Dester - opdester@freemail.hu
~~~~~~~~~~~~~~~~~~~~~~~~~~~~~~~~~~
-=== НЕ РЕДАКТИРУЙТЕ ЭТОТ ФАЙЛ! ===-

Путь: ...\CD2

1 -=- Oleg Karavaichuk - Battleship Potemkin_ Alternative soundtrack.flac -=- CDDA (100%)

202334436
</div>
</div>
Доп. информация: Запись на Петербургской Студии Грамзаписи 13 января 2006 года.
Цифровой монтаж в 2012 году осуществил Константин Прокофьев под руководством Олега Каравайчука.
Реставрация, редакция и мастеринг - Олег Грабко и Александр Бровко (Студия ДДТ) в 2017 году.


"сумасшедший дядечка. удивительный. совершенно прекрасный. таких больше нет" - с просторов интернета


Трекер:  [ 29-Июл-2018 15:06 ]

  

Скачать .torrent

Размер .torrent файла 25 KB


Размер: 597 MB
Хэш (hash) релиза: 1022f7ab2a7fd3f593dbbe41b56902c6f7f6d9a1

Еще никто не оставлял запись к записи скачать торрент Олег Каравайчук Музыка к кинофильму «Броненосец Потемкин» - 2017, FLAC . Будь первым!

!Обратная связь