Скачать через торрент Касл-Рок Castle Rock Фильм бесплатно в хорошем качестве torrent

Скачивайте на UnionPeer.org фильмы через торрент без регистрации. Новинки кино в хорошем качестве через торрент. На UnionPeer.org можно скачать через торрент фильмы 2014 и 2015 годов. Самые новые фильмы.

Скачать торрент Касл-Рок Castle Rock бесплатно через .torrent фильм мультфильм сериал

Статистика раздачи
Размер:  2.06 GB   |    Зарегистрирован:  3 месяца 15 дней   |    .torrent скачан:  67 раз   |   
Раздают:  1  
   
загрузка...
 
Автор Сообщение

Galfimbul

avatar Galfimbul


Касл-Рок / Castle Rock

Год выпуска: 2018
Страна: США
Жанр: ужасы, фэнтези, триллер, драма, детектив
Продолжительность: ~ 00:55:00

Перевод: Профессиональный (многоголосый закадровый) | Jaskier

Режиссёр: Майкл Аппендаль, Дэниэл Эттиэс, Кевин Хукс

В ролях: Мелани Лински, Скотт Гленн, Андре Холланд, Джейн Леви, Терри О`Куинн, Билл Скарсгард, Сисси Спейсек, Калил Харрис, Чоузен Джейкобс, Эрик Шарп

Описание: Начальник тюрьмы Шоушенк совершает самоубийство, и после его смерти в закрытом крыле здания находят странного юношу. Никто не знает, кто это, а сам он называет только имя адвоката Генри Дивера, который вырос в Касл-Роке. Дивер возвращается в город, где когда-то трагически погиб его отец, и пытается выяснить историю загадочного заключенного.



Качество: WEB-DL 720p
Формат: MKV
Видео: X264, ~ 1600 kbps, 1280x720 (16:9), 23.976 fps
Аудио 1: AC3, 48,0 КГц, 2 ch, 192 kbps - Rus
Аудио 2: AC3, 48,0 КГц, 2 ch, 192 kbps - Eng
Субтитры: отсутствуют
Реклама: аудио, два раза в начале и в конце по 13 секунд
Ссылка на предыдущие и альтернативные раздачи
Общее
Уникальный идентификатор                 : 187775901606624046021287494663886726843 (0x8D4452BB858054F7AC6DD1F93FBDE6BB)
Формат                                   : Matroska
Версия формата                           : Version 2
Размер файла                             : 779 Мбайт
Продолжительность                        : 54 м.
Общий поток                              : 1997 Кбит/сек
Дата кодирования                         : UTC 2018-07-29 11:49:00
Программа кодирования                    : mkvmerge v7.8.0 ('River Man') 32bit built on Apr  3 2015 12:11:22
Библиотека кодирования                   : libebml v1.3.1 + libmatroska v1.4.2

Видео
Идентификатор                            : 1
Формат                                   : AVC
Формат/Информация                        : Advanced Video Codec
Профиль формата                          : High@L3.1
Параметр CABAC формата                   : Да
Параметр ReFrames формата                : 5 кадров
Идентификатор кодека                     : V_MPEG4/ISO/AVC
Продолжительность                        : 54 м.
Битрейт                                  : 1573 Кбит/сек
Ширина                                   : 1280 пикселей
Высота                                   : 720 пикселей
Соотношение сторон                       : 16:9
Режим частоты кадров                     : Постоянный
Частота кадров                           : 23,976 (24000/1001) кадра/сек
Цветовое пространство                    : YUV
Субдискретизация насыщенности            : 4:2:0
Битовая глубина                          : 8 бит
Тип развёртки                            : Прогрессивная
Бит/(Пиксели*Кадры)                      : 0.071
Размер потока                            : 614 Мбайт (79%)
Default                                  : Да
Forced                                   : Нет

Аудио #1
Идентификатор                            : 2
Формат                                   : AC-3
Формат/Информация                        : Audio Coding 3
Расширение режима                        : CM (complete main)
Параметр Endianness формата              : Big
Идентификатор кодека                     : A_AC3
Продолжительность                        : 54 м.
Вид битрейта                             : Постоянный
Битрейт                                  : 192 Кбит/сек
Каналы                                   : 2 канала
Расположение каналов                     : Front: L R
Частота                                  : 48,0 КГц
Частота кадров                           : 31,250 кадров/сек (1536 spf)
Метод сжатия                             : С потерями
Размер потока                            : 74,9 Мбайт (10%)
Заголовок                                : Jaskier
Язык                                     : Russian
Default                                  : Да
Forced                                   : Нет

Аудио #2
Идентификатор                            : 3
Формат                                   : AC-3
Формат/Информация                        : Audio Coding 3
Расширение режима                        : CM (complete main)
Параметр Endianness формата              : Big
Идентификатор кодека                     : A_AC3
Продолжительность                        : 54 м.
Вид битрейта                             : Постоянный
Битрейт                                  : 192 Кбит/сек
Каналы                                   : 2 канала
Расположение каналов                     : Front: L R
Частота                                  : 48,0 КГц
Частота кадров                           : 31,250 кадров/сек (1536 spf)
Метод сжатия                             : С потерями
Размер потока                            : 74,9 Мбайт (10%)
Язык                                     : English
Default                                  : Нет
Forced                                   : Нет
Когда раздача ведётся путём добавления новых серий, при каждом добавлении создётся новый торрент. Чтобы начать докачку новой серии, пользователям необходимо сделать следующее:
(1) остановить скачивание,
(2) удалить старый торрент у себя из клиента (старые серии удалять не надо),
(3) скачать новый торрент и запустить его у себя в клиенте вместо старого, при этом указать клиенту путь в старую папку, куда и должно происходить скачивание новых серий.
Ваш клиент при этом должен произвести хеширование (проверку) старой папки (если не производит сам - помогите ему сделать это), и будет докачивать только те серии, которых у вас ещё нет. Старые серии при этом не удаляются, а продолжают раздаваться!
Eсли вы уже удалили старые серии, то предотвратить повторную закачку старых серий можно, отжав галочку в соответсвующих местах при запуске нового торрента. По возможности, желательно не удалять старые серии как можно дольше, чтобы релизёр не столько продолжал раздавать старые серии, а смог сконцентрироваться на новых.


Трекер:  [ 29-Июл-2018 16:18 ]

  

Скачать .torrent

Размер .torrent файла 11 KB


Размер: 2.06 GB
Хэш (hash) релиза: ed9d7111c04c077408ddba012f0848c886709767
Подписка на обновления:

Торренты, похожие на Касл-Рок Castle Rock скачать торрент

Форум Название Автор Размер S L Добавлен
Зарубежные сериалы ·%· Касл-Рок / Castle Rock / Сезон 1 / Серии 1-3 из 10 (Майкл Аппендаль) [2018, США, ужасы, фэнтези, триллер, драма, детектив, WEB-DL 1080p] MVO (Jaskier) + Original Galfimbul 45118955884.2 GB 0 0 1532965705

18:48

30-Июл-18

Зарубежные сериалы ·%· Касл-Рок / Castle Rock / Сезон 1 / Серии 1-3 из 10 (Майкл Аппендаль) [2018, США, ужасы, фэнтези, триллер, драма, детектив, WEB-DLRip] MVO (Jaskier) + Original Galfimbul 18961162241.77 GB 0 0 1532870290

16:18

29-Июл-18

Зарубежные сериалы ·%· Касл-Рок / Castle Rock / Сезон: 1 / Серии: 1-3 из 10 (Майкл Аппендаль, Дэниэл Эттиэс, Кевин Хукс) [2018, США, ужасы, триллер, драма, детектив, WEBRip] MVO (Baibako) + Original Galfimbul 22917939202.13 GB 0 0 1532864888

14:48

29-Июл-18

Зарубежные сериалы ·%· Касл-Рок / Castle Rock / Сезон 1 / Серии 1-3 из 10 (Майкл Аппендаль) [2018, США, ужасы, фэнтези, триллер, драма, детектив, WEB-DL 720p] MVO (AlexFilm) + Original + Sub (Eng) Galfimbul 1020946758974 MB 0 0 1532807300

22:48

28-Июл-18

Еще никто не оставлял запись к записи скачать торрент Касл-Рок Castle Rock . Будь первым!

!Обратная связь