Скачать через торрент [VIDEO] бесплатно русская версия torrent активатор

Статистика раздачи
Размер:  570 MB   |    Зарегистрирован:  1 год 11 месяцев   |    .torrent скачан:  37 раз   |   
Раздают:  1  
 

Скачать [VIDEO] [Код] Меч короля Артура / King Arthur: Legend of the Sword (Гай Ричи / Guy Ritchie) [2017, фэнтези, боевик, драма, приключения, BDRip] [MP4, 480x] Dub Blu-Ray EUR через torrent

 
Timeweb Many GEOs Sprinthost
загрузка...
 
Автор Сообщение

Galfimbul ghost

avatar Galfimbul ghost


Меч короля Артура / King Arthur: Legend of the Sword


Год выпуска: 2017
Страна: США
Жанр: фэнтези, боевик, драма, приключения
Продолжительность: 02:06:13
Перевод: русский Профессиональный (полное дублирование) Blu-Ray EUR
Субтитры: нет
Режиссер: Гай Ричи / Guy Ritchie
В ролях: Чарли Ханнэм, Астрид Берже-Фрисби, Джуд Лоу, Джимон Хонсу, Эрик Бана, Эйден Гиллен, Фредди Фокс, Крэйг МакГинли, Том Ву, Кингсли Бен-Адир и другие .
Описание: Когда убивают отца Артура в то время, когда он еще был ребенком, Вортигерн — дядя Артура, захватывает престол. Лишенный своего первородства и не представляющий, кто он на самом деле, Артур бродит в тяжелых думах по переулкам своего города. Но как только он вытаскивает меч из камня, его жизнь переворачивается вверх дном, и он вынужден признать свое истинное наследие... нравится это ему или нет .
Релиз группы

Качество: BDRip / рип с Blu-ray disc 1080p [EUR]
Формат: MP4
Видео кодек: XviD
Аудио кодек: AAC
Видео: 480x200 AR:2.40 500 kbps 23.976 fps
Аудио: [Russian] 2ch 48 kHz 128 kbps - [Dub] Профессиональный (полное дублирование) Blu-Ray EUR
GeneralComplete name : K:\Torrents\King Arthur Legend of the Sword.2017.BDRip.XviD.480x.rip by Frost O.S.mp4Format : MPEG-4Format profile : 3GPP Media Release 5Codec ID : 3gp5 (isom/3gp5/3gp4/mp41/mp42)File size : 570 MiBDuration : 2 h 6 minOverall bit rate mode : VariableOverall bit rate : 632 kb/sEncoded date : UTC 2018-07-30 07:39:41Tagged date : UTC 2018-07-30 07:39:41

VideoID : 1Format : MPEG-4 VisualFormat profile : Advanced Simple@L5Format settings : BVOP / Custom MatrixFormat settings, BVOP : YesFormat settings, QPel : NoFormat settings, GMC : No warppointsFormat settings, Matrix : CustomCodec ID : mp4v-20Duration : 2 h 6 minBit rate mode : VariableBit rate : 500 kb/sMaximum bit rate : 3 262 kb/sWidth : 480 pixelsHeight : 200 pixelsDisplay aspect ratio : 2.40:1Frame rate mode : ConstantFrame rate : 23.976 (24000/1001) FPSColor space : YUVChroma subsampling : 4:2:0Bit depth : 8 bitsScan type : ProgressiveCompression mode : LossyBits/(Pixel*Frame) : 0.217Stream size : 451 MiB (79%)Title : avi@GPAC0.5.2-DEV-rev248-g39d5978-masterWriting library : XviD 1.2.1 (UTC 2008-12-04)Encoded date : UTC 2018-07-29 18:28:27Tagged date : UTC 2018-07-30 07:39:45

AudioID : 2Format : AACFormat/Info : Advanced Audio CodecFormat profile : LCCodec ID : mp4a-40-2Duration : 2 h 6 minBit rate mode : VariableBit rate : 128 kb/sMaximum bit rate : 138 kb/sChannel(s) : 2 channelsChannel positions : Front: L RSampling rate : 48.0 kHzFrame rate : 46.875 FPS (1024 SPF)Compression mode : LossyStream size : 116 MiB (20%)Title : Russian / Dub, Blu-Ray EUREncoded date : UTC 2018-07-30 07:17:22Tagged date : UTC 2018-07-30 07:39:45


Внимание! AdBlock блокирует показ скриншотов, все вопросы к разработчикам )))
Трекер:  [ 30-Июл-2018 11:06 ]

  

Скачать .torrent

Размер .torrent файла 11 KB


Размер: 570 MB
Хэш (hash) релиза: c3e354733215ae4cc8159a6a750f118316edde45

Торренты, похожие на [VIDEO] скачать торрент

Форум Название Автор Размер S L Добавлен
Редакторы видео ·· Boilsoft Utilities (Video Splitter 7.02.2, Video Joiner 7.02.2, Video Converter 3.02.8 , Video Repair 2.61) Portable v12.02.2013 x86 [2013, RUS] (thinapp 5.2.2) Galfimbul ghost 2642708925 MB 2 0 1500800862

12:07

23-Июл-17

Редакторы видео ·· Boilsoft Utilities 12.02.2013 (Video Splitter 7.02.2 , Video Joiner 7.02.2 , Video Converter 3.02.8 , Video Repair 2.61 ) RePack by elchupakabra [2013,Eng\Rus] Galfimbul ghost 1547529915 MB 0 0 1373318865

00:27

9-Июл-13

Редакторы видео ·· Portable Boilsoft Utilities (Video Splitter 7.02.2, Video Joiner 7.02.2, Video Converter 3.02.8 , Video Repair 2.61 ) v12.02.2013 x86 x64 [2013, RUS] Galfimbul ghost 8925615085 MB 2 0 1373318842

00:27

9-Июл-13

Редакторы видео ·· AVS Video Editor v6.4.1.240 Final + AVS Video ReMaker v4.2.1.152 Final + AVS Video Converter v8.4.1.540 Final [2013,Ml\Rus] Galfimbul ghost 261201707249 MB 0 0 1382604237

11:43

24-Окт-13

Редакторы видео ·· AVS Video Editor 6.3.3.235 / AVS Video ReMaker 4.1.4.150 / AVS Video Converter 8.3.3.535 [2012, ENG, RUS] Galfimbul ghost 261721314250 MB 0 0 1373318768

00:26

9-Июл-13

Видео (Фильмы/Клипы) ·· [VIDEO] Полицейская академия: Коллекция / Police Academy: Collection (Хью Уилсон / Hugh Wilson, Джерри Пэрис / Jerry Paris) [1984 - 1994, комедия, HDRip] [MP4, 960x] Dub Варус Видео, DVO НТВ, VO Михалёв, VO Гаврилов, MVO Lazer Video Galfimbul ghost 96935321419.03 GB 0 0 1462369313

16:41

4-Май-16

Видео- Аудио- конверторы ·· Any DVD Converter Professional v4.6.1 / Any Video Converter Professional v5.0.9 / Any Video Converter Ultimate v4.6.1 / Any DVD Converter for Android v4.6.1 [Final / Portable / RePack & Portable] [2013,ML/Rus] Galfimbul ghost 317376159303 MB 0 0 1382778181

12:03

26-Окт-13

Видео- Аудио- конверторы ·· Any DVD Converter Professional v4.6.0 / Any Video Converter Professional v3.6.0 / Any Video Converter Ultimate v4.6.0 / Any DVD Converter for Android v4.6.0 [Final / Portable / RePack & Portable] [2013,ML/Rus] Galfimbul ghost 268333931256 MB 0 0 1373381879

17:57

9-Июл-13

Редакторы видео ·· Boilsoft Video Splitter (6.32 b154) + Boilsoft Video Joiner (6.55 b143) [x86, 2011, Eng] dnickn 2357795222 MB 0 0 1301152589

18:16

26-Мар-11

Редакторы видео ·· Xilisoft Video Editor v1.0.34.0918 Rus + Portable Xilisoft Video Editor v1.0.34.0821 Eng (2009) Bot 2696007826 MB 0 0 1286391812

22:03

6-Окт-10

Видео- Аудио- конверторы ·· Any Video Converter Ultimate 7.0.2 [2020,Multi/Ru] nikola120 7028721067 MB 0 0 1593610023

16:27

1-Июл-20

Видео- Аудио- конверторы ·· Aiseesoft Video Converter Ultimate 10.0.20 RePack (& Portable) by elchupacabra [2020,Multi/Ru] nikola120 8520616681 MB 0 0 1593484070

05:27

30-Июн-20

Видео- Аудио- конверторы ·· Any Video Converter Professional 7.0.2 RePack (& Portable) by TryRooM [2020,Multi/Ru] nikola120 7469491371 MB 1 0 1593427173

13:39

29-Июн-20

Программы для интернет и сетей ·· 4K Video Downloader 4.12.5.3670 RePack (& Portable) by TryRooM [2020,Multi/Ru] nikola120 128536130123 MB 0 0 1593260654

15:24

27-Июн-20

Видео- Аудио- конверторы ·· Movavi Video Converter 20.2.0 Premium RePack (& Portable) by TryRooM [2020,Multi/Ru] nikola120 10043817396 MB 0 0 1592621708

05:55

20-Июн-20

Редакторы видео ·· SolveigMM Video Splitter 7.3.2006.08 Business Edition + Portable [2020,Multi/Ru] nikola120 105097982100 MB 0 0 1592278493

06:34

16-Июн-20

Редакторы видео ·· Topaz Video Enhance AI 1.2.3 RePack (& Portable) by elchupacabra [2020, En] nikola120 13822253391.29 GB 0 0 1590980326

05:58

1-Июн-20

Программы для интернет и сетей ·· 4K Video Downloader 4.12.3.3650 RePack (& Portable) by elchupacabra [2020,Multi/Ru] nikola120 129590764124 MB 0 0 1590387654

09:20

25-Май-20

Редакторы видео ·*· Icecream Video Editor Pro 2.05 RePack (& Portable) by TryRooM [2020,Multi/Ru] nikola120 4015898438 MB 0 0 1589536848

13:00

15-Май-20

Видео- Аудио- конверторы ·*· Aiseesoft Video Converter Ultimate 10.0.12 RePack (& Portable) by TryRooM [2020,Multi/Ru] nikola120 5691072154 MB 0 0 1589350435

09:13

13-Май-20

Superjob
dpd RU

Еще никто не оставлял запись к записи скачать торрент [VIDEO] . Будь первым!

!Обратная связь