Скачать через торрент [VIDEO] бесплатно русская версия torrent активатор

Статистика раздачи
Размер:  1.52 GB   |    Зарегистрирован:  4 месяца 13 дней   |    .torrent скачан:  28 раз   |   
Раздают:  1  
   
загрузка...
 
Автор Сообщение

Galfimbul

avatar Galfimbul


Меч короля Артура / King Arthur: Legend of the Sword


Год выпуска: 2017
Страна: США
Жанр: фэнтези, боевик, драма, приключения
Продолжительность: 02:06:13
Перевод №1: русский Профессиональный (полное дублирование) Blu-Ray EUR
Перевод №2: украинский Профессиональный (полное дублирование) Postmodern
Перевод №3: русский Авторский (одноголосый, закадровый) Ю.Живов
Оригинальная дорожка: Есть
Субтитры: русские (форсированные), (полные), украинские (форсированные), английские (полные), (SDH)
Режиссер: Гай Ричи / Guy Ritchie
В ролях: Чарли Ханнэм, Астрид Берже-Фрисби, Джуд Лоу, Джимон Хонсу, Эрик Бана, Эйден Гиллен, Фредди Фокс, Крэйг МакГинли, Том Ву, Кингсли Бен-Адир и другие .
Описание: Когда убивают отца Артура в то время, когда он еще был ребенком, Вортигерн — дядя Артура, захватывает престол. Лишенный своего первородства и не представляющий, кто он на самом деле, Артур бродит в тяжелых думах по переулкам своего города. Но как только он вытаскивает меч из камня, его жизнь переворачивается вверх дном, и он вынужден признать свое истинное наследие... нравится это ему или нет .
Релиз группы

Качество: BDRip / рип с Blu-ray disc 1080p [EUR]
Формат: MP4
Видео кодек: H.264
Аудио кодек: AAC
Видео: 960x400 AR:2.40 1200 kbps 23.976 fps
Аудио №1: [Russian] 2ch 48 kHz 128 kbps - [Dub] Профессиональный (полное дублирование) Blu-Ray EUR
Аудио №2: [Ukrainian] 2ch 48 kHz 128 kbps - [Dub] Профессиональный (полное дублирование) Postmodern
Аудио №3: [Russian] 2ch 48 kHz 128 kbps - [VO] Авторский (одноголосый, закадровый) Ю.Живов
Аудио №4: [English] 2ch 48 kHz 128 kbps - Original
avs [info]: 960x400p 1:1 @ 24000/1001 fps (cfr)
x264 [info]: using SAR=1/1
x264 [info]: using cpu capabilities: MMX2 SSE2Fast SSSE3 SSE4.2 AVX FMA3 BMI2 AVX2
x264 [info]: profile High, level 4.1

x264 [info]: frame I:2058 Avg QP:16.79 size: 50657
x264 [info]: frame P:45019 Avg QP:21.05 size: 12359
x264 [info]: frame B:134505 Avg QP:22.61 size: 3532
x264 [info]: consecutive B-frames: 4.7% 4.5% 10.0% 24.2% 20.4% 24.2% 5.3% 2.7% 1.5% 1.1% 1.3%
x264 [info]: mb I I16..4: 6.0% 74.9% 19.1%
x264 [info]: mb P I16..4: 1.2% 11.1% 1.5% P16..4: 34.8% 34.2% 9.0% 0.0% 0.0% skip: 8.2%
x264 [info]: mb B I16..4: 0.1% 1.1% 0.2% B16..8: 32.8% 14.4% 1.9% direct: 3.1% skip:46.4% L0:42.6% L1:46.4% BI:11.0%
x264 [info]: 8x8 transform intra:79.6% inter:63.7%
x264 [info]: direct mvs spatial:94.6% temporal:5.4%
x264 [info]: coded y,uvDC,uvAC intra: 83.0% 69.4% 36.3% inter: 15.1% 11.9% 5.0%
x264 [info]: i16 v,h,dc,p: 14% 10% 5% 71%
x264 [info]: i8 v,h,dc,ddl,ddr,vr,hd,vl,hu: 7% 7% 5% 10% 15% 14% 15% 13% 15%
x264 [info]: i4 v,h,dc,ddl,ddr,vr,hd,vl,hu: 9% 7% 4% 9% 16% 15% 15% 11% 14%
x264 [info]: i8c dc,h,v,p: 36% 29% 19% 16%
x264 [info]: Weighted P-Frames: Y:13.4% UV:6.3%
x264 [info]: ref P L0: 54.8% 12.0% 15.2% 5.8% 4.1% 3.2% 2.9% 1.7% 0.3% 0.0%
x264 [info]: ref B L0: 78.2% 9.6% 5.1% 3.1% 2.1% 1.1% 0.6%
x264 [info]: ref B L1: 95.3% 4.7%
x264 [info]: kb/s:1199.71

encoded 181582 frames, 19.77 fps, 1199.71 kb/s
GeneralComplete name : K:\Torrents\King Arthur Legend of the Sword.2017.BDRip.x264.960x.rip by Frost O.S.mp4Format : MPEG-4Format profile : 3GPP Release 6 GeneralCodec ID : 3gg6 (isom/3gg6/mp42)File size : 1.52 GiBDuration : 2 h 6 minOverall bit rate mode : VariableOverall bit rate : 1 721 kb/sEncoded date : UTC 2018-07-30 07:37:16Tagged date : UTC 2018-07-30 07:37:16

VideoID : 1Format : AVCFormat/Info : Advanced Video CodecFormat profile : High@L4.1Format settings : CABAC / 8 Ref FramesFormat settings, CABAC : YesFormat settings, RefFrames : 8 framesCodec ID : avc1Codec ID/Info : Advanced Video CodingDuration : 2 h 6 minBit rate : 1 200 kb/sMaximum bit rate : 5 734 kb/sWidth : 960 pixelsHeight : 400 pixelsDisplay aspect ratio : 2.40:1Frame rate mode : ConstantFrame rate : 23.976 (24000/1001) FPSColor space : YUVChroma subsampling : 4:2:0Bit depth : 8 bitsScan type : ProgressiveBits/(Pixel*Frame) : 0.130Stream size : 1.06 GiB (70%)Writing library : x264 core 152 r2851 ba24899Encoding settings : cabac=1 / ref=8 / deblock=1:-2:-1 / analyse=0x3:0x113 / me=umh / subme=11 / psy=1 / psy_rd=0.90:0.05 / mixed_ref=1 / me_range=32 / chroma_me=1 / trellis=2 / 8x8dct=1 / cqm=0 / deadzone=21,11 / fast_pskip=0 / chroma_qp_offset=-3 / threads=6 / lookahead_threads=1 / sliced_threads=0 / nr=0 / decimate=0 / interlaced=0 / bluray_compat=0 / constrained_intra=0 / bframes=10 / b_pyramid=2 / b_adapt=2 / b_bias=0 / direct=3 / weightb=1 / open_gop=0 / weightp=2 / keyint=250 / keyint_min=23 / scenecut=40 / intra_refresh=0 / rc=2pass / mbtree=0 / bitrate=1200 / ratetol=1.0 / qcomp=0.70 / qpmin=0 / qpmax=69 / qpstep=4 / cplxblur=20.0 / qblur=0.5 / ip_ratio=1.40 / pb_ratio=1.30 / aq=1:0.70Encoded date : UTC 2018-07-29 16:03:41Tagged date : UTC 2018-07-30 07:37:43Color range : LimitedColor primaries : BT.709Transfer characteristics : BT.709Matrix coefficients : BT.709

Audio #1ID : 2Format : AACFormat/Info : Advanced Audio CodecFormat profile : LCCodec ID : mp4a-40-2Duration : 2 h 6 minBit rate mode : VariableBit rate : 128 kb/sMaximum bit rate : 138 kb/sChannel(s) : 2 channelsChannel positions : Front: L RSampling rate : 48.0 kHzFrame rate : 46.875 FPS (1024 SPF)Compression mode : LossyStream size : 116 MiB (7%)Title : Russian / Dub, Blu-Ray EUREncoded date : UTC 2018-07-30 07:17:22Tagged date : UTC 2018-07-30 07:37:43

Audio #2ID : 3Format : AACFormat/Info : Advanced Audio CodecFormat profile : LCCodec ID : mp4a-40-2Duration : 2 h 6 minBit rate mode : VariableBit rate : 128 kb/sMaximum bit rate : 137 kb/sChannel(s) : 2 channelsChannel positions : Front: L RSampling rate : 48.0 kHzFrame rate : 46.875 FPS (1024 SPF)Compression mode : LossyStream size : 116 MiB (7%)Title : Ukrainian / Dub, PostmodernEncoded date : UTC 2018-07-30 07:21:18Tagged date : UTC 2018-07-30 07:37:43

Audio #3ID : 4Format : AACFormat/Info : Advanced Audio CodecFormat profile : LCCodec ID : mp4a-40-2Duration : 2 h 6 minBit rate mode : VariableBit rate : 128 kb/sMaximum bit rate : 140 kb/sChannel(s) : 2 channelsChannel positions : Front: L RSampling rate : 48.0 kHzFrame rate : 46.875 FPS (1024 SPF)Compression mode : LossyStream size : 116 MiB (7%)Title : Russian / VO, ZhuvovEncoded date : UTC 2018-07-30 07:24:34Tagged date : UTC 2018-07-30 07:37:43

Audio #4ID : 5Format : AACFormat/Info : Advanced Audio CodecFormat profile : LCCodec ID : mp4a-40-2Duration : 2 h 6 minBit rate mode : VariableBit rate : 128 kb/sMaximum bit rate : 137 kb/sChannel(s) : 2 channelsChannel positions : Front: L RSampling rate : 48.0 kHzFrame rate : 46.875 FPS (1024 SPF)Compression mode : LossyStream size : 116 MiB (7%)Title : English / OriginalEncoded date : UTC 2018-07-30 07:13:31Tagged date : UTC 2018-07-30 07:37:43

Text #1ID : 6Format : Timed TextCodec ID : tx3gDuration : 12 min 42 sBit rate mode : VariableBit rate : 12 b/sStream size : 1.11 KiB (0%)Title : Russian / ForcedForced : NoEncoded date : UTC 2018-07-30 07:37:43Tagged date : UTC 2018-07-30 07:37:43

Text #2ID : 7Format : Timed TextCodec ID : tx3gDuration : 1 h 58 minBit rate mode : VariableBit rate : 79 b/sStream size : 68.4 KiB (0%)Title : Russian / FullForced : NoEncoded date : UTC 2018-07-30 07:37:43Tagged date : UTC 2018-07-30 07:37:43

Text #3ID : 8Format : Timed TextCodec ID : tx3gDuration : 11 min 23 sBit rate mode : VariableBit rate : 4 b/sStream size : 342 Bytes (0%)Title : Ukrainian / ForcedForced : NoEncoded date : UTC 2018-07-30 07:37:43Tagged date : UTC 2018-07-30 07:37:43

Text #4ID : 9Format : Timed TextCodec ID : tx3gDuration : 1 h 58 minBit rate mode : VariableBit rate : 53 b/sStream size : 46.5 KiB (0%)Title : English / FullForced : NoEncoded date : UTC 2018-07-30 07:37:43Tagged date : UTC 2018-07-30 07:37:43

Text #5ID : 10Format : Timed TextCodec ID : tx3gDuration : 1 h 58 minBit rate mode : VariableBit rate : 59 b/sStream size : 51.5 KiB (0%)Title : English / SDHForced : NoEncoded date : UTC 2018-07-30 07:37:43Tagged date : UTC 2018-07-30 07:37:43


Трекер:  [ 30-Июл-2018 11:06 ]

  

Скачать .torrent

Размер .torrent файла 15 KB


Размер: 1.52 GB
Хэш (hash) релиза: 36c123c109365872d224b0147c4dfabd8a4eb3f4

Торренты, похожие на [VIDEO] скачать торрент

Форум Название Автор Размер S L Добавлен
Редакторы видео ·· Boilsoft Utilities (Video Splitter 7.02.2, Video Joiner 7.02.2, Video Converter 3.02.8 , Video Repair 2.61) Portable v12.02.2013 x86 [2013, RUS] (thinapp 5.2.2) Galfimbul 2642708925 MB 0 0 1500800862

12:07

23-Июл-17

Редакторы видео ·· Boilsoft Utilities 12.02.2013 (Video Splitter 7.02.2 , Video Joiner 7.02.2 , Video Converter 3.02.8 , Video Repair 2.61 ) RePack by elchupakabra [2013,Eng\Rus] Galfimbul 1547529915 MB 0 0 1373318865

00:27

9-Июл-13

Редакторы видео ·· Portable Boilsoft Utilities (Video Splitter 7.02.2, Video Joiner 7.02.2, Video Converter 3.02.8 , Video Repair 2.61 ) v12.02.2013 x86 x64 [2013, RUS] Galfimbul 8925615085 MB 0 0 1373318842

00:27

9-Июл-13

Редакторы видео ·· AVS Video Editor v6.4.1.240 Final + AVS Video ReMaker v4.2.1.152 Final + AVS Video Converter v8.4.1.540 Final [2013,Ml\Rus] Galfimbul 261201707249 MB 0 0 1382604237

11:43

24-Окт-13

Редакторы видео ·· AVS Video Editor 6.3.3.235 / AVS Video ReMaker 4.1.4.150 / AVS Video Converter 8.3.3.535 [2012, ENG, RUS] Galfimbul 261721314250 MB 0 0 1373318768

00:26

9-Июл-13

Видео (Фильмы/Клипы) ·· [VIDEO] Полицейская академия: Коллекция / Police Academy: Collection (Хью Уилсон / Hugh Wilson, Джерри Пэрис / Jerry Paris) [1984 - 1994, комедия, HDRip] [MP4, 960x] Dub Варус Видео, DVO НТВ, VO Михалёв, VO Гаврилов, MVO Lazer Video Galfimbul 96935321419.03 GB 0 0 1462369313

16:41

4-Май-16

Видео- Аудио- конверторы ·· Any DVD Converter Professional v4.6.1 / Any Video Converter Professional v5.0.9 / Any Video Converter Ultimate v4.6.1 / Any DVD Converter for Android v4.6.1 [Final / Portable / RePack & Portable] [2013,ML/Rus] Galfimbul 317376159303 MB 0 0 1382778181

12:03

26-Окт-13

Видео- Аудио- конверторы ·· Any DVD Converter Professional v4.6.0 / Any Video Converter Professional v3.6.0 / Any Video Converter Ultimate v4.6.0 / Any DVD Converter for Android v4.6.0 [Final / Portable / RePack & Portable] [2013,ML/Rus] Galfimbul 268333931256 MB 0 0 1373381879

17:57

9-Июл-13

Редакторы видео ·· Boilsoft Video Splitter (6.32 b154) + Boilsoft Video Joiner (6.55 b143) [x86, 2011, Eng] dnickn 2357795222 MB 0 0 1301152589

18:16

26-Мар-11

Редакторы видео ·· Xilisoft Video Editor v1.0.34.0918 Rus + Portable Xilisoft Video Editor v1.0.34.0821 Eng (2009) Bot 2696007826 MB 0 0 1286391812

22:03

6-Окт-10

Видео (Фильмы/Клипы) ·%· [VIDEO] Геошторм / Geostorm (Дин Девлин / Dean Devlin) [2017, фантастика, боевик, триллер, BDRip] [3GP, 320x] Dub Blu-Ray EUR Galfimbul 393384661375 MB 0 0 1533130617

16:36

1-Авг-18

Видео (Фильмы/Клипы) ·%· [VIDEO] Геошторм / Geostorm (Дин Девлин / Dean Devlin) [2017, фантастика, боевик, триллер, BDRip] [MP4, 1280x] Dub (Rus, Ukr), Original, Sub (rus, ukr, eng) Galfimbul 23669228822.2 GB 0 0 1533130604

16:36

1-Авг-18

Видео (Фильмы/Клипы) ·%· [VIDEO] Геошторм / Geostorm (Дин Девлин / Dean Devlin) [2017, фантастика, боевик, триллер, BDRip] [MP4, 960x] Dub (Rus, Ukr), Original, Sub (rus, ukr, eng) Galfimbul 14666095561.37 GB 0 0 1533130595

16:36

1-Авг-18

Видео (Фильмы/Клипы) ·%· [VIDEO] Геошторм / Geostorm (Дин Девлин / Dean Devlin) [2017, фантастика, боевик, триллер, BDRip] [MP4, 480x] Dub Blu-Ray EUR Galfimbul 455397018434 MB 0 0 1533130584

16:36

1-Авг-18

Видео (Фильмы/Клипы) ·%· [VIDEO] Разлом Сан-Андреас / San Andreas (Брэд Пейтон / Brad Peyton) [2015, боевик, триллер, драма, BDRip] [3GP, 320x] Dub Blu-Ray CEE Galfimbul 412702233394 MB 0 0 1533029835

12:37

31-Июл-18

Видео (Фильмы/Клипы) ·%· [VIDEO] Разлом Сан-Андреас / San Andreas (Брэд Пейтон / Brad Peyton) [2015, боевик, триллер, драма, BDRip] [MP4, 1280x] Dub (Rus, Ukr), VO Гаврилов, Original, Sub (rus, eng) Galfimbul 30220987552.81 GB 0 0 1533029818

12:36

31-Июл-18

Видео (Фильмы/Клипы) ·%· [VIDEO] Разлом Сан-Андреас / San Andreas (Брэд Пейтон / Brad Peyton) [2015, боевик, триллер, драма, BDRip] [MP4, 960x] Dub (Rus, Ukr), VO Гаврилов, Original, Sub (rus, eng) Galfimbul 19412175391.81 GB 0 0 1533029807

12:36

31-Июл-18

Видео (Фильмы/Клипы) ·%· [VIDEO] [Код] Меч короля Артура / King Arthur: Legend of the Sword (Гай Ричи / Guy Ritchie) [2017, фэнтези, боевик, драма, приключения, BDRip] [3GP, 320x] Dub Blu-Ray EUR Galfimbul 455063058434 MB 0 0 1532938026

11:07

30-Июл-18

Видео (Фильмы/Клипы) ·%· [VIDEO] [Код] Меч короля Артура / King Arthur: Legend of the Sword (Гай Ричи / Guy Ritchie) [2017, фэнтези, боевик, драма, приключения, BDRip] [MP4, 1280x] Dub (Rus, Ukr), VO Живов, Original, Sub (rus, ukr, eng) Galfimbul 24805719852.31 GB 0 0 1532938013

11:06

30-Июл-18

Еще никто не оставлял запись к записи скачать торрент [VIDEO] . Будь первым!

!Обратная связь