Скачать через торрент КВН-2018. Вся премьер лига 2018 года Фильм бесплатно в хорошем качестве torrent

Скачивайте на UnionPeer.org фильмы через торрент без регистрации. Новинки кино в хорошем качестве через торрент. На UnionPeer.org можно скачать через торрент фильмы 2014 и 2015 годов. Самые новые фильмы.

Скачать торрент КВН-2018. Вся премьер лига 2018 года бесплатно через .torrent фильм мультфильм сериал

Статистика раздачи
Размер:  2.55 GB   |    Зарегистрирован:  3 месяца 17 дней   |    .torrent скачан:  52 раза   |   
Раздают:  1  
   
загрузка...
 
Автор Сообщение

Galfimbul

avatar Galfimbul


КВН-2018. Вся премьер лига 2018 года
Год выпуска: 2018
Страна: Россия
Жанр: Тв-шоу, юмор
Перевод: Не требуется
Русские субтитры: нет

качество: HDTVRip 720p
формат: MKV
видеокодек: H.264
аудиокодек: mp2
Видео: h264 1280x720 25 fps 4600 kpps 0.2 bit/pixe
Аудио: Russian (mp2, 48.0 KHz, 2 ch 192 kbps)
<div class="sp-wrap">
<div class="sp-head folded">(01) 1-1/8</div>
<div class="sp-body">Игра первая:
«Молодые люди» (Иркутск)
«Михаил Дудиков» (Ставрополь)
Сборная Коргалжинo
«Электрошок» (Санкт-Петербург)
«Умные люди» (Рязань)
«Шурочка» (Семибратово)
«19.30 ДГТУ» (Ростов-на-Дону — Азов)
«Первая Олимпийская РСМ» (Москва)
</div>
</div>
<div class="sp-wrap">
<div class="sp-head folded">(01) 1-1/8</div>
<div class="sp-body">General
Unique ID : 148012136009610084896860719570162857626 (0x6F5A19B98A2F50B9E49DCC223B48B69A)
Complete name : H:\трекер\KVN.2018.Premier.720p\KVN.2018.Premier.(01).1.1-8.HDTVRip.720p.mkv
Format : Matroska
Format version : Version 4 / Version 2
File size : 2.55 GiB
Duration : 1 h 16 min
Overall bit rate : 4 793 kb/s
Encoded date : UTC 2018-07-30 07:07:18
Writing application : mkvmerge v25.0.0 ('Prog Noir') 64-bit
Writing library : libebml v1.3.6 + libmatroska v1.4.9
Cover : Yes
Attachments : cover.jpg

Video
ID : 1
Format : AVC
Format/Info : Advanced Video Codec
Format profile : High@L4
Format settings : CABAC / 9 Ref Frames
Format settings, CABAC : Yes
Format settings, ReFrames : 9 frames
Codec ID : V_MPEG4/ISO/AVC
Duration : 1 h 16 min
Bit rate : 4 600 kb/s
Width : 1 280 pixels
Height : 720 pixels
Display aspect ratio : 16:9
Frame rate mode : Constant
Frame rate : 25.000 FPS
Color space : YUV
Chroma subsampling : 4:2:0
Bit depth : 8 bits
Scan type : Progressive
Bits/(Pixel*Frame) : 0.200
Stream size : 2.44 GiB (96%)
Writing library : x264 core 155 r2901 7d0ff22
Encoding settings : cabac=1 / ref=9 / deblock=1:-1:-1 / analyse=0x3:0x133 / me=umh / subme=11 / psy=1 / psy_rd=1.05:0.00 / mixed_ref=1 / me_range=32 / chroma_me=1 / trellis=2 / 8x8dct=1 / cqm=0 / deadzone=21,11 / fast_pskip=0 / chroma_qp_offset=-2 / threads=6 / lookahead_threads=1 / sliced_threads=0 / nr=0 / decimate=0 / interlaced=0 / bluray_compat=0 / constrained_intra=0 / bframes=8 / b_pyramid=2 / b_adapt=2 / b_bias=0 / direct=3 / weightb=1 / open_gop=0 / weightp=2 / keyint=250 / keyint_min=25 / scenecut=40 / intra_refresh=0 / rc=2pass / mbtree=0 / bitrate=4600 / ratetol=1.0 / qcomp=0.65 / qpmin=0 / qpmax=69 / qpstep=4 / cplxblur=20.0 / qblur=0.5 / ip_ratio=1.40 / pb_ratio=1.30 / aq=1:1.00
Language : Russian
Default : Yes
Forced : No

Audio
ID : 2
Format : MPEG Audio
Format version : Version 1
Format profile : Layer 2
Codec ID : A_MPEG/L2
Codec ID/Hint : MP2
Duration : 1 h 16 min
Bit rate mode : Constant
Bit rate : 192 kb/s
Channel(s) : 2 channels
Sampling rate : 48.0 kHz
Frame rate : 41.667 FPS (1152 SPF)
Compression mode : Lossy
Stream size : 104 MiB (4%)
Language : Russian
Default : Yes
Forced : No
</div>
</div>
Внимание! Раздача ведётся путём добавления новых серий; при каждом добавлении создаётся новый торрент. Чтобы начать докачку новой серии, пользователям необходимо сделать следующее:
(1) остановить скачивание,
(2) удалить старый торрент у себя из клиента (старые серии удалять не надо),
(3) скачать новый торрент и запустить его у себя в клиенте вместо старого, при этом указать клиенту путь в старую папку куда и должно происходить скачивание новых серий.
Ваш клиент при этом должен произвести хеширование (проверку) старой папки (если не производит сам - помогите ему сделать это), и будет докачивать только те серии которых у вас ещё нет. Старые серии при этом не удаляются, а продолжают раздаваться!
Eсли вы уже удалили старые серии, то предотвратить повторную закачку старых серий можно, отжав галочку в соответсвующих местах при запуске нового торрента. По возможности, желательно не удалять старые серии как можно дольше чтобы релизёр не столько продолжал раздавать старые серии, а смог сконцентрироваться на новых.


Трекер:  [ 30-Июл-2018 11:42 ]

  

Скачать .torrent

Размер .torrent файла 13 KB


Размер: 2.55 GB
Хэш (hash) релиза: 0ab771dd7366ae06621582c4e320c5374c638d7f
Подписка на обновления:

Еще никто не оставлял запись к записи скачать торрент КВН-2018. Вся премьер лига 2018 года . Будь первым!

!Обратная связь