Скачать через торрент Фури-кури 2 FLCL Progressive бесплатно Аниме Все серии на русском torrent

Статистика раздачи
Размер:  3.53 GB   |    Зарегистрирован:  2 месяца 18 дней   |    .torrent скачан:  45 раз   |   
Раздают:  1  
   
загрузка...
 
Автор Сообщение

Galfimbul

avatar Galfimbul



Фури-кури 2 / FLCL Progressive
Страна: Япония
Год выпуска: 2018
Жанр: приключения, комедия, меха, пародия
Тип: TV
Продолжительность: 6 эп, ~23 мин.
Режиссер: Мотохиро Кацуюки
Студия: Production I.G

Описание:Много лет миновало с тех пор, как нелюдимый Наота Нандаба и неистовая Харуко Харухара устраивали сумасшедшие гонки и сражения с инопланетными силами, скромно называя это «приключениями». Теперь Наота... Хотя нет, не Наота. Здесь его вообще не будет. Наша главная героиня — Хидоми. Она — самый что ни на есть обычный подросток, уже не ждущий от своей скучной и серой жизни каких-то сюрпризов. Точнее не ждала, пока в школу девочки не устроилась новая преподавательница с прекрасным именем... Харуко! Пожив мирно последние минуты, Хидоми обнаруживает, что на её город напала «Medical Mechanica». Стоит упомянуть, что эта самая «Medical Mechanica» — инопланетная компания прямиком из космоса — начала нешуточную войну с ещё одной такой же компанией под названием «Fraternity». И вот теперь их вражда дошла до границ Земли. Тем временем, Хидоми понимает, что в ней самой скрыта некая тайна, которая может спасти всех. Да вот только раскрыть эту тайну под силу лишь неугомонной Харуко. И ведь ещё неясны многие вещи... Почему Харуко вернулась? Куда делась её гитара Rickenbacker 4001, которую она оставила Наоте? И где сейчас андроид Канти?
Впрочем, Хидоми наверняка решит эти загадки.
@Shikimoriᅠ

Качество: WEBRip
Тип релиза: Без хардсаба
Формат видео: MKV
Автор рипа: LastReaction

Видео: x264 (10 бит), 1536x864, ~2211 kbps, 23,976 fps
Аудио:
1) AC3, 192 kbps, 48.0 KHz, 2 ch, русский (внешним файлом) - [AniLibria]
2) AC3, 192 kbps, 48.0 KHz, 2 ch, русский (внешним файлом) - [SHIZA]
3) AC3, 192 kbps, 48.0 KHz, 2 ch, русский (внешним файлом) - [StreamSound]
4) AC3, 192 kbps, 48.0 KHz, 2 ch, русский (внешним файлом) - [TAKEOVER]
5) EAC3, 224 kbps, 48.0 KHz, 2 ch, английский, дублированный (в составе контейнера)

Субтитры:
1) ASS, внешние, русский; перевод: [Bazaar Zetsubou] - lukorepka, Литрый Хис
2) SRT, в составе контейнера, английский; перевод: [Adult Swim]
3) SRT, в составе контейнера, английский; перевод: [Adult Swim] | SDH
многоголосая - Gomer, Rexus, Aemi, Hekomi [AniLibria] - sample

многоголосая - Dancel, Daelit, Лизавета, OkanaTsoy [SHIZA] - sample

многоголосая - Frederica_Izzard, Minaka, BakaSenpai, Shane [StreamSound] - sample

двухголосая - (муж./жен.) GAR & Esmeralda [TAKEOVER] - sample
ОбщееУникальный идентификатор : 173849181377308331808520329505065470732 (0x82CA22697DE4513F631DF2FD5C150B0C)Полное имя : FLCL Progressive - 01v2 [English Dubbed][WEB 864p Hi444 EAC3].mkvФормат : MatroskaВерсия формата : Version 4 / Version 2Размер файла : 392 МбайтПродолжительность : 22 м. 28 с.Общий поток : 2435 Кбит/секНазвание фильма : [LR] FLCL Progressive - EP 01 - RE: StartДата кодирования : UTC 2018-07-28 12:57:07Программа кодирования : mkvmerge v21.0.0 ('Tardigrades Will Inherit The Earth') 32-bitБиблиотека кодирования : libebml v1.3.5 + libmatroska v1.4.8

ВидеоИдентификатор : 1Формат : AVCФормат/Информация : Advanced Video CodecПрофиль формата : High 4:4:4 Predictive@L5Настройки формата : CABAC / 16 Ref FramesПараметр CABAC формата : ДаПараметр RefFrames формата : 16 кадровИдентификатор кодека : V_MPEG4/ISO/AVCПродолжительность : 22 м. 27 с.Битрейт : 2211 Кбит/секШирина : 1536 пикселейВысота : 864 пикселяСоотношение сторон : 16:9Режим частоты кадров : ПостоянныйЧастота кадров : 23,976 (24000/1001) кадра/секЦветовое пространство : YUVСубдискретизация насыщенности : 4:4:4Битовая глубина : 10 битТип развёртки : ПрогрессивнаяБит/(Пиксели*Кадры) : 0.069Размер потока : 355 Мбайт (91%)Заголовок : WEB 1536x864 AVC Hi444 | LR [Amazon]Библиотека кодирования : x264 core 152 r2851kMod ba24899Настройки программы : cabac=1 / ref=16 / deblock=1:-1:-1 / analyse=0x1:0x111 / me=umh / subme=10 / psy=1 / fade_compensate=0.00 / psy_rd=0.75:0.15 / mixed_ref=1 / me_range=32 / chroma_me=1 / trellis=2 / 8x8dct=0 / cqm=0 / deadzone=21,11 / fast_pskip=0 / chroma_qp_offset=0 / threads=6 / lookahead_threads=1 / sliced_threads=0 / nr=0 / decimate=0 / interlaced=0 / bluray_compat=0 / constrained_intra=0 / bframes=16 / b_pyramid=2 / b_adapt=2 / b_bias=0 / direct=3 / weightb=1 / open_gop=0 / weightp=2 / keyint=240 / keyint_min=24 / scenecut=40 / intra_refresh=0 / rc_lookahead=60 / rc=crf / mbtree=1 / crf=16.0000 / qcomp=0.70 / qpmin=0 / qpmax=81 / qpstep=4 / ip_ratio=1.40 / aq=3:0.65Язык : EnglishDefault : ДаForced : НетЦветовой диапазон : LimitedКоэффициенты матрицы : BT.709

АудиоИдентификатор : 2Формат : E-AC-3Формат/Информация : Enhanced Audio Coding 3Идентификатор кодека : A_EAC3Продолжительность : 22 м. 27 с.Вид битрейта : ПостоянныйБитрейт : 224 Кбит/секКаналы : 2 каналаРасположение каналов : Front: L RЧастота : 48,0 КГцЧастота кадров : 187,500 кадров/сек (256 SPF)Метод сжатия : С потерямиРазмер потока : 36,0 Мбайт (9%)Заголовок : 2.0 EAC3 | AmazonЯзык : EnglishServiceKind/String : Complete MainDefault : ДаForced : Нет

Текст #1Идентификатор : 3Формат : UTF-8Идентификатор кодека : S_TEXT/UTF8Идентификатор кодека/Информация : UTF-8 Plain TextПродолжительность : 22 м. 26 с.Битрейт : 63 бит/секElementCount : 327Размер потока : 10,4 Кбайт (0%)Заголовок : Full Dialogue | AmazonЯзык : EnglishDefault : НетForced : Нет

Текст #2Идентификатор : 4Формат : UTF-8Идентификатор кодека : S_TEXT/UTF8Идентификатор кодека/Информация : UTF-8 Plain TextПродолжительность : 22 м. 26 с.Битрейт : 70 бит/секElementCount : 380Размер потока : 11,7 Кбайт (0%)Заголовок : SDH | AmazonЯзык : EnglishDefault : НетForced : Нет

Меню00:00:00.000 : en:Prologue00:02:58.344 : en:Part A00:09:37.743 : en:Part B00:18:09.046 : en:Part C00:21:07.932 : en:Ending: "Spiky Seeds" by The Pillows
01. RE: Start | Новое начало
02. Freebie Honey | Халявный мёд
03. Stone Skipping | Блинчики – лягушки
04. LooPQR | Водоворот
05. Fool on the Planet | Планета дураков
06. Our Run | Всё бежим и бежим
...5586429 (наличие альтернативной русскоязычной дорожки);
...5575090 (наличие русскоязычной дорожки).


Трекер:  [ 30-Июл-2018 13:01 ]

  

Скачать .torrent

Размер .torrent файла 23 KB


Размер: 3.53 GB
Хэш (hash) релиза: 87357df0e9d55af573b94ac9963e5cad883bd9b9
Подписка на обновления:

Еще никто не оставлял запись к записи скачать торрент Фури-кури 2 FLCL Progressive . Будь первым!

!Обратная связь