Скачать через торрент Твоё имя Kimi no Na wa. бесплатно Аниме Все серии на русском torrent

Статистика раздачи
Размер:  2.19 GB   |    Зарегистрирован:  4 месяца 12 дней   |    .torrent скачан:  63 раза   |   
Раздают:  1  
   
загрузка...
 
Автор Сообщение

Galfimbul

avatar Galfimbul



Твоё имя / Kimi no Na wa. / Your Name.
Страна: Япония
Год выпуска: 2016
Жанр: романтика, драма
Тип: полнометражный фильм
Продолжительность: 106 мин.
Режиссер: Синкай Макото
Студия: CoMix Wave Inc.

Описание:Наша главная героиня, Мицуха Миямидзу, живет в маленьком городке на берегу озера. Однообразная провинциальная жизнь нагоняет тоску не только на нее, но и на большую часть молодого населения города. И все мечты, конечно, связаны с тем, чтобы поскорее закончить школу и вырваться из этой глуши. И вот однажды видит она чудесный сон, как просыпается она в совершенно новом месте, и местом этим оказывается Токио... только вот, как водится во снах, не без сюрпризов. Живет она жизнью паренька по имени Таки. Очень реалистичный сон длинною в день.
Наш главный герой, юноша по имени Таки, ведет вполне себе обычную жизнь старшеклассника. Живет в суете Токио, ходит в школу, готовится к выпуску, вечерами подрабатывает в ресторане и обладает незаурядным талантом художника. И снится ему, что проснулся он в незнакомом месте, да еще и в теле девушки, и есть у него младшая сестра, и живет он в какой-то сельской глубинке. И зовут ту девушку Мицуха.
И стали эти сны повторяться, и поняли наши герои, что живут они временами жизнью друг друга. Даже начали общаться друг с другом и установили определенные правила, чтобы не слишком менять жизни друг друга. Их отношения начали крепнуть, как вдруг, сны прекращаются. Судьба приготовила Таки суровое испытание, но вместе с тем и приоткрыла завесу времени.

Качество: BDRip
Тип релиза: Без хардсаба
Формат видео: MKV
Наличие линковки: Нет
Автор рипа: Mites

Видео: x265 (8 бит), 1920x1080, 2417 kbps, 59,940 fps
Аудио:
1) AAC, 192 kbps, 48.0 KHz, 2 ch, русский (в составе контейнера) - [Anything Group] - Sad_Kit & Milirina (муж./жен.) - sample
2) AAC, 317 kbps, 48.0 KHz, 6 ch, японский (в составе контейнера)

Субтитры:
1) ASS, в составе контейнера, русский; Надписи - [2nd Division]
2) ASS, в составе контейнера, русский; Полные - [BBNG+Саша+Endill + 2nd Division + Acit Na Morte Vos]
ОбщееУникальный идентификатор : 249821783553271823685613052777040815979 (0xBBF1ECE5158D4824A7C2D6509E09A76B)Полное имя : Kimi no Na wa [x265 BDRip 1080p 60 fps] [Anything Group].mkvФормат : MatroskaВерсия формата : Version 4 / Version 2Размер файла : 2,19 ГбайтПродолжительность : 1 ч. 46 м.Общий поток : 2940 Кбит/секДата кодирования : UTC 2018-07-30 11:29:57Программа кодирования : mkvmerge v21.0.0 ('Tardigrades Will Inherit The Earth') 32-bitБиблиотека кодирования : libebml v1.3.5 + libmatroska v1.4.8Attachments : BOOKOS.TTF / BOOKOSI.TTF / Eskal.ttf / Georgia.ttf / Gothic.TTF / LEngineer-Regular.otf / Myriad Pro Cond.ttf / pt-sans.ttf / pt-sansb.ttf / segoepr.ttf / segoeprb.ttf / segoeuisl.ttf / tahoma.ttf / tahomabd.ttf

ВидеоИдентификатор : 1Формат : HEVCФормат/Информация : High Efficiency Video CodingПрофиль формата : Main@L4.1@MainИдентификатор кодека : V_MPEGH/ISO/HEVCПродолжительность : 1 ч. 46 м.Битрейт : 2417 Кбит/секШирина : 1920 пикселейВысота : 1080 пикселейСоотношение сторон : 16:9Режим частоты кадров : ПостоянныйЧастота кадров : 59,940 (60000/1001) кадров/секЦветовое пространство : YUVСубдискретизация насыщенности : 4:2:0Битовая глубина : 8 битБит/(Пиксели*Кадры) : 0.019Размер потока : 1,80 Гбайт (82%)Библиотека кодирования : x265 2.2+2-998d4520d1cf:[Windows][GCC 6.2.0][64 bit] 8bit+10bit+12bitНастройки программы : cpuid=1173503 / frame-threads=5 / numa-pools=20 / wpp / no-pmode / no-pme / no-psnr / no-ssim / log-level=2 / input-csp=1 / input-res=1920x1080 / interlace=0 / total-frames=383351 / level-idc=0 / high-tier=1 / uhd-bd=0 / ref=3 / no-allow-non-conformance / no-repeat-headers / annexb / no-aud / no-hrd / info / hash=0 / no-temporal-layers / open-gop / min-keyint=25 / keyint=250 / bframes=4 / b-adapt=2 / b-pyramid / bframe-bias=0 / rc-lookahead=20 / lookahead-slices=6 / scenecut=40 / no-intra-refresh / ctu=64 / min-cu-size=8 / no-rect / no-amp / max-tu-size=32 / tu-inter-depth=1 / tu-intra-depth=1 / limit-tu=0 / rdoq-level=0 / signhide / no-tskip / nr-intra=0 / nr-inter=0 / no-constrained-intra / strong-intra-smoothing / max-merge=2 / limit-refs=3 / no-limit-modes / me=1 / subme=2 / merange=57 / temporal-mvp / weightp / no-weightb / no-analyze-src-pics / deblock=0:0 / sao / no-sao-non-deblock / rd=3 / no-early-skip / rskip / no-fast-intra / no-tskip-fast / no-cu-lossless / no-b-intra / rdpenalty=0 / psy-rd=2.00 / psy-rdoq=0.00 / no-rd-refine / analysis-mode=0 / no-lossless / cbqpoffs=0 / crqpoffs=0 / rc=crf / crf=20.0 / qcomp=0.60 / qpstep=4 / stats-write=0 / stats-read=0 / ipratio=1.40 / pbratio=1.30 / aq-mode=1 / aq-strength=1.00 / cutree / zone-count=0 / no-strict-cbr / qg-size=32 / no-rc-grain / qpmax=69 / qpmin=0 / sar=1 / overscan=0 / videoformat=5 / range=0 / colorprim=2 / transfer=2 / colormatrix=2 / chromaloc=0 / display-window=0 / max-cll=0,0 / min-luma=0 / max-luma=255 / log2-max-poc-lsb=8 / vui-timing-info / vui-hrd-info / slices=1 / opt-qp-pps / opt-ref-list-length-pps / no-multi-pass-opt-rps / scenecut-bias=0.05Язык : JapaneseDefault : ДаForced : Нет

Аудио #1Идентификатор : 2Формат : AACФормат/Информация : Advanced Audio CodecПрофиль формата : LCИдентификатор кодека : A_AAC-2Продолжительность : 1 ч. 46 м.Битрейт : 192 Кбит/секКаналы : 2 каналаРасположение каналов : Front: L RЧастота : 48,0 КГцЧастота кадров : 46,875 кадров/сек (1024 SPF)Метод сжатия : С потерямиРазмер потока : 148 Мбайт (7%)Заголовок : Sad_Kit & MilirinaЯзык : RussianDefault : ДаForced : Нет

Аудио #2Идентификатор : 3Формат : AACФормат/Информация : Advanced Audio CodecПрофиль формата : LCИдентификатор кодека : A_AAC-2Продолжительность : 1 ч. 46 м.Битрейт : 317 Кбит/секКаналы : 6 каналовРасположение каналов : Front: L C R, Side: L R, LFEЧастота : 48,0 КГцЧастота кадров : 46,875 кадров/сек (1024 SPF)Метод сжатия : С потерямиРазмер потока : 242 Мбайт (11%)Язык : JapaneseDefault : НетForced : Нет

Текст #1Идентификатор : 4Формат : ASSИдентификатор кодека : S_TEXT/ASSИдентификатор кодека/Информация : Advanced Sub Station AlphaПродолжительность : 1 ч. 44 м.Битрейт : 395 бит/секElementCount : 1644Метод сжатия : Без потерьРазмер потока : 302 Кбайт (0%)Заголовок : НадписиЯзык : RussianDefault : ДаForced : Нет

Текст #2Идентификатор : 5Формат : ASSИдентификатор кодека : S_TEXT/ASSИдентификатор кодека/Информация : Advanced Sub Station AlphaПродолжительность : 1 ч. 45 м.Битрейт : 510 бит/секElementCount : 2866Метод сжатия : Без потерьРазмер потока : 394 Кбайт (0%)Заголовок : ПолныеЯзык : RussianDefault : НетForced : Нет
...5432868 (1080p, наличие альтернативной русскоязычной дорожки);
...5378059 (1080p, наличие альтернативной русскоязычной дорожки);

...5588548 (наличие альтернативной русскоязычной дорожки);
...5382468 (наличие альтернативной русскоязычной дорожки);
...5378058 (BDRip, наличие альтернативной русскоязычной дорожки);
...5429030 (наличие альтернативной русскоязычной дорожки);
...5433554 (BDRip, наличие альтернативной русскоязычной дорожки);

...5501366 (BDRip, 1080p, наличие альтернативной русскоязычной дорожки);
...5437945 (1080p, наличие альтернативной русскоязычной дорожки);
...5437946 (1080p, наличие альтернативной русскоязычной дорожки).


Трекер:  [ 30-Июл-2018 18:30 ]

  

Скачать .torrent

Размер .torrent файла 11 KB


Размер: 2.19 GB
Хэш (hash) релиза: ea7b9103ddfc347effd6e47342cce70fd50517e0
Подписка на обновления:

Торренты, похожие на Твоё имя Kimi no Na wa. скачать торрент

Форум Название Автор Размер S L Добавлен
Аниме | HD Rips ·%· Твоё имя / Kimi no Na wa / Your Name (Макото Синкай) [Movie] [Без хардсаба] [RUS(int), SUB] [2016, романтика, драма, приключения, мистика, BDRip] [1080p] Galfimbul 92623747728.63 GB 0 0 1532550609

23:30

25-Июл-18

Аниме | Rips ·· Твоё имя / Kimi no Na wa / Your Name [Movie] [Без хардсаба] [2016, романтика, драма, школа, BDRip] Galfimbul 15818055681.47 GB 0 0 1520679699

14:01

10-Мар-18

Аниме | Rips ·· Твоё имя / Kimi no Na wa / Your Name (Макото Синкай) [Movie] [Без хардсаба] [RUS(int)] [2016, Романтика, драма, фантастика, школа, SATRip] [HWP] Galfimbul 894376248853 MB 0 0 1518651045

02:30

15-Фев-18

Аниме | HD Rips ·· Твоё имя / Kimi no Na wa. / Your Name. (Макото Синкай) [Movie] [Без хардсаба] [RUS(ext),JAP+SUB] [2016, романтика, драма, школа, сверхъестественное, BDRemux] [2160p] Galfimbul 5432788370350.6 GB 0 0 1514876498

10:01

2-Янв-18

Аниме | Rips ·· Твоё имя / Kimi no Na wa. / Your Name [Movie] [Без хардсаба] [RUS(int), JAP+SUB] [2016, романтика, драма, BDRip] [HWP] Galfimbul 18845597311.76 GB 0 0 1503342141

22:02

21-Авг-17

Аниме | HD Rips ·· Твоё имя / Kimi no Na wa. / Your Name. (Макото Синкай) [Movie] [Без хардсаба] [RUS(ext),JAP+SUB] [2016, романтика, драма, школа, сверхъестественное, BDRip] [2160p] Galfimbul 2228626988820.76 GB 0 0 1502110910

16:01

7-Авг-17

Аниме | Rips ·· Твоё имя / Kimi no Na wa / Your Name (Макото Синкай) [Movie] [Без хардсаба] [RUS(int), JAP] [2016, романтика, драма, школа, сверхъестественное, BDRip] [HWP] Galfimbul 13385461761.25 GB 0 0 1501164139

17:02

27-Июл-17

Аниме | Rips ·· Твоё имя / Kimi no Na wa / Your Name (Макото Синкай) [Movie] [Без хардсаба] [RUS(int), JAP] [2016, романтика, драма, школа, сверхъестественное, WEBRip] Galfimbul 24353116522.27 GB 0 0 1501164135

17:02

27-Июл-17

Аниме | Rips ·· Твоё имя / Kimi no Na wa. / Your Name. (Макото Синкай) [Movie] [Без хардсаба] [RUS(ext),JAP+SUB] [2016, романтика, драма, школа, сверхъестественное, BDRemux] [1080p] Galfimbul 2776574660725.86 GB 0 0 1501153355

14:02

27-Июл-17

Аниме | Rips ·· Твоё имя / Kimi no Na wa. / Your Name. (Макото Синкай) [Movie] [Без хардсаба] [RUS(ext),JAP+SUB] [2016, романтика, драма, школа, сверхъестественное, BDRip] [720p] Galfimbul 24267434232.26 GB 0 0 1501056140

11:02

26-Июл-17

Аниме | HD Rips ·· Твоё имя / Kimi no Na wa. / Your Name. (Макото Синкай) [Movie] [RUS(ext),JAP+SUB] [2016, романтика, драма, школа, сверхъестественное, BDRip] [1080p] Galfimbul 36020803073.35 GB 0 0 1501043508

07:31

26-Июл-17

Аниме | Rips ·· Твоё имя / Kimi no Na wa. / Your Name. (Макото Синкай) [Movie] [RUS(ext),JAP+SUB] [2016, романтика, драма, школа, сверхъестественное, BDRip] [1080p] Galfimbul 36730313143.42 GB 0 0 1501043487

07:31

26-Июл-17

Аниме | HD Rips ·· Твоё имя / Kimi no Na wa. / Your Name. (Макото Синкай) [Movie] [RUS(ext),JAP+SUB] [2016, романтика, драма, школа, сверхъестественное, BDRemux] [1080p] Galfimbul 2926596212327.26 GB 0 0 1500969724

11:02

25-Июл-17

Аниме | HD Rips ·· Твоё имя / Kimi no Na wa. / Your Name. (Макото Синкай) [Movie] [RUS(ext),JAP+SUB] [2016, романтика, драма, школа, сверхъестественное, BDRip] [720p] Galfimbul 23569881702.2 GB 0 0 1500967854

10:30

25-Июл-17

Аниме | HD Rips ·· Твоё имя / Kimi no Na wa / Your Name (Макото Синкай) [Movie] [Хардсаб] [RUS(int), JAP] [2016, романтика, драма, школа, сверхъестественное, WEBRip] [720p] Galfimbul 1033077068985 MB 0 0 1486423606

02:26

7-Фев-17

Аниме | Rips ·· Твоё имя / Kimi no Na wa / Your Name (Макото Синкай) [Movie] [Хардсаб] [RUS(int),JAP] [2016, романтика, драма, школа, сверхъестественное, DVDRip] Galfimbul 850082759811 MB 0 0 1481993787

19:56

17-Дек-16

Аниме | Rips ·· Твоё имя / Kimi no Na wa / Your Name [Movie] [Хардсаб] [RUS(int), JAP+SUB] [2016 г., романтика, драма, школа, сверхъестественное, DVDRip] [480p] Galfimbul 891909969851 MB 0 0 1473793271

22:01

13-Сен-16

Еще никто не оставлял запись к записи скачать торрент Твоё имя Kimi no Na wa. . Будь первым!

!Обратная связь